Quick Browse
Movies
TV shows
Music
Games
Applications
Anime
Other
Facebook
Advertising

Friends
Torrent Download
Movie4u
1337x.to
Torrent Downloads




Verified torrent The Hangover Part II 2011 DVDRip XviD LTW


    Seeders : 1      Leechers : 1
Hash :8EBD27F7E65AD54AAD94CB22EEC830B5A34A785C
Added :1 Year+ by jumbotorrentsxVerified torrent uploader in Movies
Size :1.47 GB
Stream :WATCH ONLINE @ Movie4u


The Hangover Part II 2011 DVDRip XviD LTW
Free and Fast Download with Usenet 300GB+ free







Trackers List

Tracker NameLast CheckStatusSeedersLeechers




Torrent File Content (8 files)


The Hangover Part II 2011 DVDRip XviD LTW
     The Hangover Part II 2011 DVDRip XviD-LTW.avi -
1.47 GB

    Screenshots
          31879296.png -
384.65 KB

          93441456.png -
365.47 KB

          92024116.png -
303.77 KB

          92307127.png -
225.64 KB

     The Hangover Part II 2011 DVDRip XviD-LTW.nfo -
2.6 KB

     Torrent downloaded from Limetorrents.com.txt -
48 bytes

     Torrent downloaded from Demonoid.me.txt -
46 bytes



Description



http://img838.imageshack.us/img838/4150/hangyx.jpg


http://img31.imageshack.us/img31/9531/92024116.png


http://img268.imageshack.us/img268/7210/92307127.png


http://img714.imageshack.us/img714/774/31879296.png



[code]

Format : AVI
Format/Info : Audio Video Interleave
File size : 1.47 GiB
Duration : 1h 37mn
Overall bit rate : 2 150 Kbps
Writing application : VirtualDubMod 1.5.4.1 (build 2178/release)
Writing library : VirtualDubMod build 2178/release

Video
ID : 0
Format : MPEG-4 Visual
Format profile : Advanced [email protected]
Format settings, BVOP : 1
Format settings, QPel : No
Format settings, GMC : No warppoints
Format settings, Matrix : Custom
Codec ID : XVID
Codec ID/Hint : XviD
Duration : 1h 37mn
Bit rate : 1 950 Kbps
Width : 672 pixels
Height : 288 pixels
Display aspect ratio : 2.35:1
Frame rate : 29.970 fps
Color space : YUV
Chroma subsampling : 4:2:0
Bit depth : 8 bits
Scan type : Progressive
Compression mode : Lossy
Bits/(Pixel*Frame) : 0.336
Stream size : 1.33 GiB (91%)
Writing library : XviD 1.2.1 (UTC 2008-12-04)

Audio
ID : 1
Format : AC-3
Format/Info : Audio Coding 3
Mode extension : CM (complete main)
Codec ID : 2000
Duration : 1h 37mn
Bit rate mode : Constant
Bit rate : 192 Kbps
Channel(s) : 2 channels
Channel positions : Front: L R
Sampling rate : 48.0 KHz
Bit depth : 16 bits
Compression mode : Lossy
Stream size : 134 MiB (9%)
Alignment : Split accross interleaves
Interleave, duration : 96 ms (2.88 video frames)
Interleave, preload duration : 96 ms
Language : English

Thanks: YanKeeS - ZMG

[/code]


Related torrents

Torrent NameAddedSizeSeedLeechHealth
1 Year+ - in Movies686.5 MB00
1 Year+ - in Movies1.47 GB00
1 Year+ - in Movies1.47 GB324
1 Year+ - in Movies1.47 GB228
1 Year+ - in Movies1.47 GB2105

Comments (0 Comments)




Please login or create a FREE account to post comments

Latest Searches

| janain | britney spears femme deluxe | avid Air instrument | rainmarker | the wire s04e01 720p hdtv x264 batv rarbg | Sampha Dual 2013 Album Tracklist | Plain White T | fame the game | FAKings 16 10 27 Estefani Tarrago SPANISH 720p MP4 KTR | Deutschland Von Oben Der Kinofilm 2012 German |