Quick Browse
Movies
TV shows
Music
Games
Applications
Anime
Other
Facebook
Advertising

Friends
Torrent Download
Movie4u
1337x.to
Torrent Downloads




Verified torrent The Hangover Part II 2011 DVDSCR XviD AC3 - VISUALiSE


    Seeders : 1      Leechers : 1
Hash :ACEDB4A365AFC974EC95962D047CF461421E18E0
Added :1 Year+ by memory100Verified torrent uploader in Movies
Size :1.66 GB
Stream :WATCH ONLINE @ Movie4u


The Hangover Part II 2011 DVDSCR XviD AC3 - VISUALiSE
Free and Fast Download with Usenet 300GB+ free







Trackers List

Tracker NameLast CheckStatusSeedersLeechers




Torrent File Content (6 files)


The Hangover Part II 2011 DVDSCR XviD AC3 - VISUALiSE
     HDSceneRG.txt -
115 bytes

     The Hangover Part II 2011 DVDSCR XviD AC3 - VISUALiSE.avi -
1.66 GB

     Torrent downloaded from Demonoid.me.txt -
46 bytes

     Torrent downloaded from Suprnova.me.txt -
42 bytes

     att-networks.com.txt -
39 bytes

     sceneunderground.org.txt -
77 bytes



Description



http://img855.imageshack.us/img855/4811/hangw.jpg


[code]

Release Notes:
Well here we are with our release of Harry Potter and the The Hangover Part II 2011 DVDSCR XviD AC3 - VISUALiSE
Big Thanks For The Source file from ????????? So we could do a proper release on this and not a reencode
Decided to tag it as a screener as tbh as its more a scr than a true dvdrip but hey

Info:
Video
ID : 0
Format : MPEG-4 Visual
Format profile : Advanced [email protected]
Format settings, BVOP : 2
Format settings, QPel : No
Format settings, GMC : No warppoints
Format settings, Matrix : Default (H.263)
Muxing mode : Packed bitstream
Codec ID : XVID
Codec ID/Hint : XviD
Duration : 1h 37mn
Bit rate : 2 035 Kbps
Width : 720 pixels
Height : 304 pixels
Display aspect ratio : 2.35:1
Frame rate : 23.976 fps
Color space : YUV
Chroma subsampling : 4:2:0
Bit depth : 8 bits
Scan type : Progressive
Compression mode : Lossy
Bits/(Pixel*Frame) : 0.388
Stream size : 1.39 GiB (84%)
Writing library : XviD 64

Audio
ID : 1
Format : AC-3
Format/Info : Audio Coding 3
Mode extension : CM (complete main)
Codec ID : 2000
Duration : 1h 37mn
Bit rate mode : Constant
Bit rate : 384 Kbps
Channel(s) : 2 channels
Channel positions : Front: L R
Sampling rate : 48.0 KHz
Bit depth : 16 bits
Compression mode : Lossy
Stream size : 268 MiB (16%)
Alignment : Aligned on interleaves
Interleave, duration : 42 ms (1.00 video frame)

[/code]
Screens:
http://img577.imageshack.us/img577/4815/10074196.png

http://img14.imageshack.us/img14/5088/88875522.png

http://img197.imageshack.us/img197/1070/39089878.png

http://img528.imageshack.us/img528/627/13019935.png

http://img528.imageshack.us/img528/6498/71470433.png

Related torrents

Torrent NameAddedSizeSeedLeechHealth
1 Year+ - in Movies1.66 GB03
1 Year+ - in Movies1.66 GB128
1 Year+ - in Movies1.66 GB181
1 Year+ - in Movies1.66 GB00
1 Year+ - in Movies1.42 GB225

Comments (0 Comments)




Please login or create a FREE account to post comments

Latest Searches

| Lovenia Lux Sophie Luuna | Plumper Pass F B I | sis001 doctor | Kindred The Family Soul Alright | the very best of the bee gees 1990 | College Rules Three Submissions For The Price of One | amateur senior sex | nightingale christmas | Collins music | Eliminators 2016 1 8 p |