Quick Browse
Movies
TV shows
Music
Games
Applications
Anime
Other
Facebook
Advertising

Friends
Torrent Download
Movie4u
1337x.to
Torrent Downloads




The Hangover Part II 2011 TS XViD-EP1C


    Seeders : 1      Leechers : 1
Hash :C8D9EEFAFF79E38D23B1F6B0B38717FC6B73E25C
Added :1 Year+ by jumbotorrentsxVerified torrent uploader in Movies
Size :1.39 GB
Stream :WATCH ONLINE @ Movie4u


The Hangover Part II 2011 TS XViD-EP1C
Free and Fast Download with Usenet 300GB+ free







Trackers List

Tracker NameLast CheckStatusSeedersLeechers




Torrent File Content (6 files)


The Hangover Part II 2011 TS XViD-EP1C
    Screenshots
          vlcsnap-2011-05-28-11h02m46s68.png -
380.2 KB

          vlcsnap-2011-05-28-11h03m17s153.png -
341.75 KB

          vlcsnap-2011-05-28-11h03m33s48.png -
357.52 KB

     The Hangover Part II 2011 TS XViD-EP1C.avi -
1.39 GB

     The Hangover Part II 2011 TS XViD-EP1C.nfo -
2.18 KB

     Torrent downloaded from Demonoid.me.txt -
46 bytes



Description



http://img405.imageshack.us/img405/6220/hangk.jpg


http://img155.imageshack.us/img155/1618/63105301.png


http://img171.imageshack.us/img171/2884/34549044.png


http://img219.imageshack.us/img219/8107/32337764.png


[code]
:File:: The.Hangover.Part.II.2011.TS.XViD-EP1C
::Video Source:: CiNEDUB
::Audio Source:: Own
::Language:::::: English
::IMDB:::::::::: http://www.imdb.com/title/tt1411697/

Right after the bachelor party in Las Vegas, Phil, Stu, Alan, and Doug jet to Thailand for Stu's wedding. Stu's plan for a subdued pre-wedding brunch, however, goes seriously awry.

::Specs:::::::::
Format : AVI
Format/Info : Audio Video Interleave
File size : 1.37 GiB
Duration : 1h 35mn
Overall bit rate : 2 060 Kbps
Writing application : VirtualDubMod 1.5.10.2 (build 2540/release)
Writing library : VirtualDubMod build 2540/release

Video
ID : 0
Format : MPEG-4 Visual
Format profile : Advanced [email protected]
Format settings, BVOP : Yes
Format settings, QPel : No
Format settings, GMC : No warppoints
Format settings, Matrix : Default (MPEG)
Muxing mode : Packed bitstream
Codec ID : XVID
Codec ID/Hint : XviD
Duration : 1h 35mn
Bit rate : 1 922 Kbps
Width : 688 pixels
Height : 336 pixels
Display aspect ratio : 2.048
Frame rate : 25.000 fps
Color space : YUV
Chroma subsampling : 4:2:0
Bit depth : 8 bits
Scan type : Progressive
Bits/(Pixel*Frame) : 0.333
Stream size : 1.28 GiB (93%)
Writing library : XviD 58

Audio
ID : 1
Format : MPEG Audio
Format version : Version 1
Format profile : Layer 3
Codec ID : 55
Codec ID/Hint : MP3
Duration : 1h 35mn
Bit rate mode : Constant
Bit rate : 128 Kbps
Channel(s) : 2 channels
Sampling rate : 44.1 KHz
Stream size : 87.2 MiB (6%)
Alignment : Split accross interleaves
Interleave, duration : 40 ms (1.00 video frame)
Interleave, preload duration : 500 ms

::NOTES:::::::::
Presenting the first TS of Hangover Part II.
Enjoy. //EP1C
[/code]

Related torrents

Torrent NameAddedSizeSeedLeechHealth
1 Year+ - in Movies1.39 GB2257
1 Year+ - in Movies1.38 GB00
1 Year+ - in Movies1.38 GB00
1 Comments
2 Good
Verified torrent
1 Year+ - in Movies1.38 GB26982
1 Year+ - in Movies1.38 GB00

Comments (0 Comments)




Please login or create a FREE account to post comments

Latest Searches

| e girls go go let s go | Gold Rush Alaska S02E19 Revelations | Remy Larue Hunter | Valentina Bianchi | crystal science | divi 3 theme | David Attenboroughs Conquest Of The Skies 2of4 Rivals 720p x264 HDTV | Luisa Castillo | 2 0V | never you give up |