Quick Browse
Movies
TV shows
Music
Games
Applications
Anime
Other
Facebook
Advertising

Friends
Torrent Download
Movie4u
1337x.to
Torrent Downloads




Verified torrent The Hangover Part II TS READNFO XViD - IMAGiNE


    Seeders : 1      Leechers : 0
Hash :BCF87DD44AD995C7FEF105B4324F2C24C5C38AF9
Added :1 Year+ by memory100Verified torrent uploader in Movies
Size :1.38 GB
Stream :WATCH ONLINE @ Movie4u


The Hangover Part II TS READNFO XViD - IMAGiNE
Free and Fast Download with Usenet 300GB+ free







Trackers List

Tracker NameLast CheckStatusSeedersLeechers




Torrent File Content (8 files)


The Hangover Part II TS READNFO XViD - IMAGiNE
     Budget seedboxs.txt -
44 bytes

     NW RG.nfo -
12.96 KB

     The Hangover Part II TS READNFO XViD - IMAGiNE.avi -
1.37 GB

     The Hangover Part II TS READNFO XViD - IMAGiNE.nfo -
5.68 KB

     The Hangover Part II TS READNFO XViD - SAMPLE.avi -
11.01 MB

     dreamthe.net.txt -
91 bytes

     northernwarriors.net.txt -
135 bytes

     sceneunderground.org.txt -
77 bytes



Description



http://img28.imageshack.us/img28/7144/hangz.jpg

[code]
The Hangover Part II TS READNFO XViD - IMAGiNE

Ripper ...........: IMAGiNE IMDB

Rating.......:7.2/10
Video Codec.......: XVID Release

Date......:29/05/11
Audio Codec.......:MP3 Theatre

Date......:26/05/11
Audio Bitrate.....:128 Runtime.......:1h 39mn
Subtitles.........:NIL

Language..........:ENGLISH
Resolution...... 720 x 288 IMDb URL..........

http://www.imdb.com/title/tt1411697/

DETAILS:

Video
ID : 0
Format : MPEG-4 Visual
Format profile : Advanced [email protected]
Format settings, BVOP : 2
Format settings, QPel : No
Format settings, GMC : No warppoints
Format settings, Matrix : Default (MPEG)
Muxing mode : Packed bitstream
Codec ID : XVID
Codec ID/Hint : XviD
Duration : 1h 39mn
Bit rate : 1 827 Kbps
Width : 720 pixels
Height : 288 pixels
Display aspect ratio : 2.500
Frame rate : 23.976 fps
Color space : YUV
Chroma subsampling : 4:2:0
Bit depth : 8 bits
Scan type : Progressive
Compression mode : Lossy
Bits/(Pixel*Frame) : 0.367
Stream size : 1.27 GiB (93%)
Writing library : XviD 61

Audio
ID : 1
Format : MPEG Audio
Format version : Version 1
Format profile : Layer 3
Codec ID : 55
Codec ID/Hint : MP3
Duration : 1h 39mn
Bit rate mode : Constant
Bit rate : 128 Kbps
Channel(s) : 2 channels
Sampling rate : 44.1 KHz
Compression mode : Lossy
Stream size : 91.2 MiB (7%)
Alignment : Split accross interleaves
Interleave, duration : 42 ms (1.00 video frame)

Plot:
Right after the bachelor party in Las Vegas, Phil, Stu, Alan, and Doug jet to Thailand for

Stu's wedding. Stu's plan for a subdued pre-wedding brunch, however, goes seriously awry.

SOURCES:

VIDEO:Spank My SeedBox! and cinedub Thanks m8ty's
AUDIO:Thanks m8ty and ep1c thanks

NOTES:
IMAGiNE bringing you another release..........Hangover 2

Ok here we go with our version of hangover 2 and what a nightmare it was,but all good in

the end so we think anyways lol.

Right first of the main body of the video is from a nice 720p cam and was dam good but had

lots of camera movement and missing a few seconds between change overs,no more than a few

secs at a time.

Now for them secs,instead of leaving them out ,we've replaced them with cinedubs video all

29secs in total.

Right work done ....well firstly we needed to cut the 720p into 11 pieces and rotate,crop

and resize each part differently aswell as the normal contrast,brightness,sharpness

etc....

But by doing this the AR was off on some parts and bang on with others,so we've gone with

a AR which is pretty decent for all parts.

Also after doing that we then needed to cut cinedubs video for the missing scenes and

resize it to match the same AR and video stats as the rest so we could append them

together..

Audio is some sweet line which we synced and for the cinedub parts we used epics audio as

it was already synced so.

Anyway have to say it came out dam nice considering the source so enjoy this one funny as

fook film
[/code]
Screens:
http://img571.imageshack.us/img571/8586/14167047.jpg

http://img101.imageshack.us/img101/4240/75642832.jpg

http://img692.imageshack.us/img692/2569/48475569.jpg

http://img546.imageshack.us/img546/2332/35425405.jpg

http://img18.imageshack.us/img18/8113/90284453.jpg

Related torrents

Torrent NameAddedSizeSeedLeechHealth
1 Year+ - in Movies418.35 MB00
1 Year+ - in Movies1.15 GB23296
1 Year+ - in Movies1.11 GB314
1 Year+ - in Movies934.2 MB02
1 Year+ - in Movies481.79 MB13

Comments (0 Comments)




Please login or create a FREE account to post comments

Latest Searches

| ATKHairy 16 06 16 Ember Stone Watersports 1080p MP4 KTR | buddy buddy 1968 | Cosmid Valentina 720p 16 12 05 | Connie Wilson | Devil s Walking | 1080p bluray prime | Shooter S01E03 HDTV x264 FLEET eztv | train band | Kylie Cumming | times december |