Quick Browse
Movies
TV shows
Music
Games
Applications
Anime
Other
Facebook
Advertising

Friends
Torrent Download
Movie4u
1337x.to
Torrent Downloads




Verified torrent The Haunting [1999] [DVD] [AC3] [Hannspree]


    Seeders : 1      Leechers : 0
Hash :74E97F80EDC8C4F9A2E11F2343AE26433909DCA3
Added :1 Year+ by HannspreeVerified torrent uploader in Movies
Size :1.47 GB
Stream :WATCH ONLINE @ Movie4u


The Haunting [1999] [DVD] [AC3] [Hannspree]
Free and Fast Download with Usenet 300GB+ free







Trackers List

Tracker NameLast CheckStatusSeedersLeechers




Torrent File Content (11 files)


The Haunting
    The Haunting [DVD]
          VIDEO_TS/VIDEO_TS.BUP -
12 KB

          VIDEO_TS/VIDEO_TS.IFO -
12 KB

          VIDEO_TS/VIDEO_TS.VOB -
58 KB

          VIDEO_TS/VTS_01_0.BUP -
78 KB

          VIDEO_TS/VTS_01_0.IFO -
78 KB

          VIDEO_TS/VTS_01_0.VOB -
58 KB

          VIDEO_TS/VTS_01_1.VOB -
1023.97 MB

          VIDEO_TS/VTS_01_2.VOB -
485.06 MB

          The Haunting [DVD] Covers/The Haunting - DVD.jpg -
62.08 KB

          The Haunting [DVD] Covers/The Haunting - Front.jpg -
491.71 KB

     The Haunting [DVD].NFO -
7.03 KB



Description



=========================================================================================================================
[ Another free and high quality, ready to burn DVD - I will be adding new torrents on a daily basis - Remember to seed ]
=========================================================================================================================
MOVIE TITLE: The Haunting
LANGUAGE: English
MOVIE SUBS: No - (subtitles if/when required)
BURN TESTED: Yes
FORMAT: Pal
GENRE: Horror | Thriller | Mystery
RUNTIME: 112 Minutes
YEAR: 1999
IMDB LINK: http://www.imdb.com/title/tt0171363/
=========================================================================================================================
GENERAL MOVIE DESC:

Eleanor Lance is called to meet at Hill House for Dr. Marrow's sleeping disorder studies, along with three other people. The owners of the house tell them that no one will be around and that they won't be able to hear them. The first night they all sit around and talk. Eleanor tells them that her sleeping disorder is different because she can sleep it is just that she wakes up because she thinks her dead mom is still living with her.

Well that isn't the case now because she is woken one night in the Hill House bedroom by talking childrens voices asking her for her help. At first scared by the voice, she learns to avoid them. Later, the group finds out that Dr. Marrow is not using them for sleeping disorders but a test in fear. The fear is first thought to be fake but eventually turns real when loud noises are heard and objects start to move. Now they must try an escape the house before they are all killed.
=========================================================================================================================
GENERAL MOVIE SPECS:

GENERAL:
Complete name : The Haunting
Format : MPEG-PS
File size : 1.47 GB
Duration : 112 Minutes
Overall bit rate : 1 873 Kbps

VIDEO:
ID : 224 (0xE0)
Format : MPEG Video
Format version : Version 2
Format profile : [email protected]
Format settings, BVOP : Yes
Format settings, Matrix : Default
Duration : 112 Minutes
Bit rate mode : Variable
Bit rate : 1 644 Kbps
Nominal bit rate : 9 608 Kbps
Width : 720 pixels
Height : 576 pixels
Display aspect ratio : 16:9
Frame rate : 24.000 fps
Standard : PAL
Color space : YUV
Chroma subsampling : 4:2:0
Bit depth : 8 bits
Scan type : Progressive
Scan order : 2:2:2:2:2:2:2:2:2:2:2:3 Pulldown
Bits/(Pixel*Frame) : 0.165
Stream size : 899 MiB (88%)

AUDIO:
ID : 128 (0x80)
Format : AC-3
Format/Info : Audio Coding 3
Mode extension : CM (complete main)
Duration : 112 Minutes
Bit rate mode : Constant
Bit rate : 192 Kbps
Channel(s) : 2 channels
Channel positions : Front: L R
Sampling rate : 48.0 KHz
Stream size : 105 MiB (10%)
=========================================================================================================================

Related torrents

Torrent NameAddedSizeSeedLeechHealth
Verified torrent
1 Year+ - in Movies1.36 GB113
Verified torrent
1 Year+ - in Movies1.9 GB10
3 months ago - in Movies1.12 GB00
3 months ago - in Movies1.81 GB00
Verified torrent
1 Year+ - in Movies1.67 GB02

Comments (0 Comments)




Please login or create a FREE account to post comments

Latest Searches

| j meter | fist fight 2014 | autoerotique steve aoki | george lynch shadow train 2015 flac | eminem a soldier | Hunter Remy Larue | VA Stairways To The Songbook Of Led Zeppelin Homage To The Legend 2015 FLAC | s03e08 victorious | Christmas album mp3 | Dragonvein Book 4 |