Quick Browse
Movies
TV shows
Music
Games
Applications
Anime
Other
Facebook
Friends
Torrent Download
Movie4u
1337x.to
Torrent Downloads

Verified torrent The Hobbit An Unexpected Journey 2012 CAM READNFO XVID-26K


    Seeders : 1      Leechers : 1


Trackers List

Tracker NameLast CheckStatusSeedersLeechers




Torrent File Content (7 files)


The.Hobbit.An.Unexpected.Journey.2012.CAM.READNFO.XVID-26K
     The.Hobbit.An.Unexpected.Journey.2012.CAM.READNFO.XVID-26K.NFO.avi -
1.86 GB

     Sample1.avi -
17.45 MB

     The.Hobbit.An.Unexpected.Journey.2012.CAM.READNFO.XVID-26K.NFO -
10.64 KB

     Meggafast.com.txt -
124 bytes

     YouTube Latest Releases And Archive.txt -
86 bytes

     Sceneunderground.org.txt -
77 bytes

     Torrent downloaded from rarbg.com.txt.txt -
0 bytes



Description



http://i.imgrz.com/C1JiV.jpg

[code]
The.Hobbit.An.Unexpected.Journey.2012.CAM.READNFO.XVID-26K

http://www.imdb.com/title/tt0903624

Plot:
A younger and more reluctant Hobbit, Bilbo Baggins, sets out on a "unexpected journey" to the Lonely Mountain

with a spirited group of Dwarves to reclaim a their stolen mountain home from a dragon named Smaug.

Sources - Audio-friend....Thanks :P
VIDEO-spanish cam.....Thanks :P
Subs-N/A....
Video
ID : 0
Format : MPEG-4 Visual
Format profile : Advanced [email protected]
Format settings, BVOP : 2
Format settings, QPel : No
Format settings, GMC : No warppoints
Format settings, Matrix : Default (H.263)
Muxing mode : Packed bitstream
Codec ID : XVID
Codec ID/Hint : XviD
Duration : 2h 37mn
Bit rate : 1 495 Kbps
Width : 720 pixels
Height : 334 pixels
Display aspect ratio : 2.2:1
Frame rate : 23.976 fps
Color space : YUV
Chroma subsampling : 4:2:0
Bit depth : 8 bits
Scan type : Progressive
Compression mode : Lossy
Bits/(Pixel*Frame) : 0.259
Stream size : 1.64 GiB (88%)
Writing library : XviD 64

Audio
ID : 1
Format : MPEG Audio
Format version : Version 1
Format profile : Layer 3
Codec ID : 55
Codec ID/Hint : MP3
Duration : 2h 37mn
Bit rate mode : Constant
Bit rate : 192 Kbps
Channel(s) : 2 channels
Sampling rate : 44.1 KHz
Compression mode : Lossy
Stream size : 216 MiB (11%)
Alignment : Split accross interleaves
Interleave, duration : 10916 ms (261.72 video frames)

Notes -
Reason for readnfo... the video has missing video in 4 places in total 6 mins of video is missing!... with that

been said.. the audio is cam.. filtered the spanish video... came out nice.. and is very watcahble on the dark

scenes.. the spanish video it self has 2 repeating scenes.. whoever encoded this did a shit job at it... you can

only work with what you get! it does stutter and glitch a few times points at the spanish encoder

Related torrents

Torrent NameAddedSizeSeedLeechHealth
1 Year+ - in Movies1.88 GB371
1 Year+ - in Movies1.78 GB012
1 Year+ - in Movies763.15 MB3987
1 Year+ - in Movies1.88 GB2946
1 Year+ - in Movies699.34 MB20

Comments (0 Comments)




Please login or create a FREE account to post comments

Latest Searches

| Batman Arkham Origins DLC RePack | t i 2017 mp3 | you know u can do | Carmen Jenner savage | fast and furious 8 720p movie | tara gabriel | assorted magazines bundle April 2017 | fearless mavado | b g Lil Wayne juvenile | my naughty massage 9 |