Quick Browse
Movies
TV shows
Music
Games
Applications
Anime
Other
Facebook
Advertising

Friends
Torrent Download
Movie4u
1337x.to
Torrent Downloads




Verified torrent The Hunters 2011 DVDRip Xvid AC3-26K


    Seeders : 0      Leechers : 0
Hash :D0085FD7F0F302CBAC084CA3398CC3FAC86E3D36
Added :1 Year+ by memory100Verified torrent uploader in Movies
Size :1.73 GB
Stream :WATCH ONLINE @ Movie4u


The Hunters 2011 DVDRip Xvid AC3-26K
Free and Fast Download with Usenet 300GB+ free







Trackers List

Tracker NameLast CheckStatusSeedersLeechers




Torrent File Content (9 files)


The Hunters 2011 DVDRip Xvid AC3-26K
     att-networks.com.txt -
39 bytes

     sample.avi -
38.17 MB

     sceneunderground.org.txt -
77 bytes

     Torrent downloaded from Demonoid.me.txt -
46 bytes

     The Hunters 2011 DVDRip Xvid AC3-26K.sub -
3.96 MB

     The Hunters 2011 DVDRip Xvid AC3-26K.avi -
1.69 GB

     The Hunters 2011 DVDRip Xvid AC3-26K.idx -
48.62 KB

     The Hunters 2011 DVDRip Xvid AC3-26K.nfo -
3.36 KB

     HDSceneRG.txt -
115 bytes



Description



http://img151.imageshack.us/img151/1548/huntersi.jpg

[code]
The Hunters 2011 DVDRip Xvid AC3-26K

Imdb:
http://www.imdb.com/title/tt1591504/

Plot:
Alice and her friends are approaching the end of the school year where their dead-end lives will end and the chance of a new life will begin

Sources:
OWN DVDR

Notes:
enjoy!
english subs included!!

Greetz:
Xtreme Encode|FYA|ILLUMANTI|CM8|RX|VISION|HDSCENE|NIGHTMAREZ|xTriLL|DTRG|CRYS|REMIXHD|BIDA
To all the people who have helped me :P you know who you are

Anything to offer email us @: [email protected]

Video
ID : 0
Format : MPEG-4 Visual
Format profile : Advanced [email protected]
Format settings, BVOP : 2
Format settings, QPel : No
Format settings, GMC : No warppoints
Format settings, Matrix : Default (H.263)
Codec ID : XVID
Codec ID/Hint : XviD
Duration : 1h 44mn
Bit rate : 1 900 Kbps
Width : 720 pixels
Height : 304 pixels
Display aspect ratio : 2.35:1
Frame rate : 25.000 fps
Color space : YUV
Chroma subsampling : 4:2:0
Bit depth : 8 bits
Scan type : Progressive
Compression mode : Lossy
Bits/(Pixel*Frame) : 0.347
Stream size : 1.39 GiB (83%)
Writing library : XviD 63

Audio
ID : 1
Format : AC-3
Format/Info : Audio Coding 3
Mode extension : CM (complete main)
Codec ID : 2000
Duration : 1h 44mn
Bit rate mode : Constant
Bit rate : 384 Kbps
Channel(s) : 6 channels
Channel positions : Front: L C R, Side: L R, LFE
Sampling rate : 48.0 KHz
Bit depth : 16 bits
Compression mode : Lossy
Stream size : 288 MiB (17%)
Alignment : Aligned on interleaves
Interleave, duration : 40 ms (1.00 video frame)
[/code]
Screens:
http://img217.imageshack.us/img217/2072/vlcsnap2011122816h37m38.png

http://img703.imageshack.us/img703/9223/vlcsnap2011122816h37m49.png

http://img137.imageshack.us/img137/2544/vlcsnap2011122816h37m56.png

http://img710.imageshack.us/img710/5046/vlcsnap2011122816h38m04.png

http://img641.imageshack.us/img641/7383/vlcsnap2011122816h38m09.png

http://img716.imageshack.us/img716/4116/vlcsnap2011122816h38m14.png



http://img851.imageshack.us/img851/5503/26ks.jpg
#
Thank you smallz for banner!

Related torrents

Torrent NameAddedSizeSeedLeechHealth
1 Year+ - in Movies1.69 GB00
1 Year+ - in Movies1.24 GB731
1 Year+ - in Movies1.24 GB3117
Verified torrent
1 Year+ - in Movies1.24 GB10
Verified torrent
1 Year+ - in Movies1.93 GB10

Comments (0 Comments)




Please login or create a FREE account to post comments

Latest Searches

| DNA xxx | windows usb reset | Pushing Boundaries Part 2 London River | R B Christmas collection | hell on wheels s03e06 vostfr hdtv x264 brn ksks mp4 | pc through the woods | ts Foxxy hardcore | The Strain 3x03 ita | home improvement parody dvdrip xvid jiggly avi | she wont be |