Quick Browse
Movies
TV shows
Music
Games
Applications
Anime
Other

Donate and Support

Friends
Torrents.me
Torrent Download
Free Movies
1337x
RARBG
Torrent Downloads

Verified torrent The Ides of March (2011) DVDRip XviD-MAX


    Seeders : 0      Leechers : 0

Hash :69C985E607F8C0614B798F3544E40B4375813E33
Added :1 Year+ by robyrsVerified torrent uploader in Movies
Size :835.12 MB
Stream :Watch Online Full Movie @ Movie4u


The Ides of March (2011) DVDRip XviD-MAX
Anonymous and free Direct Download







Warning! Do not Download Torrents Without a VPN!
Your IP Address is .   And Location is
Your Internet Provider and Government can track your torrent Activity!  Hide your IP ADDRESS with a VPN!
We Strongly Recommend Using SpyOFF Torrent VPN to Anonymize your Torrenting. It's FREE For 15 Days!

Note :

Please Update (Trackers Info) Before Downloading Torrents to See Updated Seeders And Leechers for Batter Download Speed.

Trackers List

Tracker NameLast CheckStatusSeedersLeechers




Torrent File Content (6 files)


The Ides of March (2011) DVDRip XviD-MAX
     The Hangover 2 (2011) DVDRip XviD-MAXSPEED.nfo -
2.98 KB

     The Ides of March (2011) DVDRip XviD-MAXSPEED www.torentz.3xforum.ro.avi -
835.12 MB

     Torrent downloaded from Demonoid.me.txt -
46 bytes

     Torrent downloaded from Extratorrent.com.txt -
40 bytes

     Torrent downloaded from h33t.com.txt -
32 bytes

     Torrent downloaded from Rarbg.com.txt -
33 bytes



Description



Image Links:

http://www.hotimg.com/direct/GKb4etA.jpg


http://www.hotimg.com/direct/kPdCJGx.jpg


http://www.hotimg.com/direct/wvfC9bA.jpg


http://www.hotimg.com/direct/ytycxgQ.jpg

Alternatives:

http://shareimage.org/images/xptp0234kv2cz50v2e1.jpg


http://shareimage.org/images/86f4l5tnfee2kqh4w7.jpg


http://shareimage.org/images/5xka2ip86x5syuvm5bbd.jpg


http://shareimage.org/images/67wilgexi0lreyihzdxi.jpg


The Ides of March (2011) DVDRip XviD-MAX
Format : AVI
Format/Info : Audio Video Interleave
Format profile : OpenDML
Duration : 1h 37mn
Overall bit rate : 2 151 Kbps
Writing application : VirtualDubMod 1.5.10.2 (build 2542/release)
Writing library : VirtualDubMod build 2542/release
Original source form : MAX TORRENTZ
Copyright : SIGISMUNT

Video
ID : 0
Format : MPEG-4 Visual
Format profile : [email protected]
Format settings, BVOP : Yes
Format settings, QPel : No
Format settings, GMC : No warppoints
Format settings, Matrix : Custom
Codec ID : XVID
Codec ID/Hint : XviD
Duration : 1h 37mn
Bit rate : 1 950 Kbps
Width : 672 pixels
Height : 288 pixels
Display aspect ratio : 2.35:1
Frame rate : 29.970 fps
Resolution : 24 bits
Colorimetry : 4:2:0
Scan type : Progressive
Bits/(Pixel*Frame) : 0.336
Stream size : 1.33 GiB (91%)
Writing library : XviD 1.2.1 (UTC 2008-12-04)

Audio
ID : 1
Format : MPEG Audio
Format version : Version 1
Format profile : Layer 3
Codec ID : 55
Codec ID/Hint : MP3
Duration : 1h 37mn
Bit rate mode : Constant
Bit rate : 192 Kbps
Channel(s) : 2 channels
Sampling rate : 48.0 KHz
Resolution : 16 bits
Stream size : 134 MiB (9%)
Alignment : Aligned on interleaves
Interleave, duration : 24 ms (0.72 video frame)
Interleave, preload duration : 192 ms

http://www.imdb.com/title/tt1124035/

Source: DVDRip (perfect a/v/sync quality-original source resynced,sample included)
This torrent is not seedbox supported,please seed it to the MAX

Note:If you have something to offer as early releases,seedboxes,links,accounts,etc
please contact us on piratepedia[@]msn/gmail.com or our website torentz 3xforum ro

The Ides of March (2011) DVDRip XviD-MAX Torrent Free Download


How To Get Your Maxspeed (uTorrent)

Torrent Client - Preferences - Bandwidth - Number of connections - Set aprox. 500 for each
Torrent Client - Preferences - BiTorrent - Protocol Encryption - Forced
Bandwidth Allocation - High (Set download/upload limit - Unlimited)
Stop Other Active Torrents - Start downloading and wait for connections.
Enjoy and Seed for at least 1:1 ratio. Don't forget to say thanks/leave reviews.
Before downloading you should check/google search sample "release name""sample".
Greets to all actual/future p2p/scene QUALITY groups and affiliate websites.
Don't trust IMDb robot or bad ratings,always watch some trailers first.
Ignore stupid comments/fake/mislabeled/no-DVDrips/CAM/TS/RAR uploads.
Please spread this release/torrent to your friends/forums/etc.
If you need translation subs visit some subtitles sites.
Report if you see online streaming or other spam links.
Recommended movie player VLC PLAYER.

Related torrents

Torrent NameAddedSizeSeedLeechHealth
3 months ago - in Movies4.38 GB00
3 months ago - in Other1.93 GB00
3 months ago - in Other1.22 GB00
3 months ago - in Movies1.28 GB00
3 months ago - in Movies7.64 GB00

Comments (0 Comments)




Please login or create a FREE account to post comments

Latest Searches

| Next Door Amateur Sophie | Chaurasia 2 | Fan 2016 Hindi Blu Ray X264 DTS ESubs 1080P 3 3GB Team Jaffa | girls gone wild dormroom fantasies 7 | designcad 3d max v23 | frederick s lee | orphan black sub ita | game of thrones season 02 episode 3 | CLINICAL MICROBIOLOGY MADE R | NBA 2017 10 19 |