Quick Browse
Movies
TV shows
Music
Games
Applications
Anime
Other
Facebook
Advertising

Friends
Torrent Download
Movie4u
1337x.to
Torrent Downloads




The Imaginarium of Doctor Parnassus - Cam - XVID - IMAGiNE


    Seeders : 2      Leechers : 2
Hash :8DD587A549FCE9D40ADB8FC86374760900EB6138
Added :1 Year+ in Movies
Size :1.26 GB
Stream :WATCH ONLINE @ Movie4u


The Imaginarium of Doctor Parnassus - Cam - XVID - IMAGiNE
Free and Fast Download with Usenet 300GB+ free







Trackers List

Tracker NameLast CheckStatusSeedersLeechers




Torrent File Content (3 files)


The_Imaginarium_of_Doctor_Parnassus_Cam-XVID-IMAGiNE
     Doctor Parnassus IMAGiNE.avi -
1.25 GB

     Sample.avi -
12.49 MB

     poster.png -
289.25 KB



Description



Description

Ripper ...........: IMAGiNE IMDB Rating.......:7.4/10
Video Codec.......: XVID Release Date......:01/012/10
Audio Codec.......:MP3 Theatre Date......:16/10/09 UK
Audio Bitrate.....:128 Runtime.......:1h 55mn
Subtitles.........:NIL Language..........:ENGLISH
Resolution...... 704 x 380 IMDb URL..........:http://www.imdb.com/title/tt1054606/


DETAILS:


Video
ID : 0
Format : MPEG-4 Visual
Format profile : [email protected]
Format settings, BVOP : Yes
Format settings, QPel : No
Format settings, GMC : No warppoints
Format settings, Matrix : Custom
Codec ID : XVID
Codec ID/Hint : XviD
Duration : 1h 54mn
Bit rate : 1 356 Kbps
Width : 704 pixels
Height : 380 pixels
Display aspect ratio : 1.853
Frame rate : 25.000 fps
Resolution : 24 bits
Colorimetry : 4:2:0
Scan type : Progressive
Bits/(Pixel*Frame) : 0.203
Stream size : 1.09 GiB (87%)
Writing library : XviD 1.2.1 (UTC 2008-12-04)

Audio
ID : 1
Format : MPEG Audio
Format version : Version 1
Format profile : Layer 3
Format_Settings_Mode : Joint stereo
Codec ID : 55
Codec ID/Hint : MP3
Duration : 1h 54mn
Bit rate mode : Constant
Bit rate : 192 Kbps
Channel(s) : 2 channels
Sampling rate : 44.1 KHz
Resolution : 16 bits
Stream size : 158 MiB (12%)
Alignment : Split accross interleaves
Interleave, duration : 40 ms (1.00 video frame)
Interleave, preload duration : 500 ms

Related torrents

Torrent NameAddedSizeSeedLeechHealth
1 Year+ - in Movies1.27 GB00
1 Year+ - in Movies1.26 GB6769
1 Year+ - in Movies700.31 MB1011
1 Year+ - in Movies700.29 MB157106
6 months ago - in Movies4.57 GB10

Comments (0 Comments)




Please login or create a FREE account to post comments

Latest Searches

| ggg manga 3 pack | Earth Fire Weekend 1979 | The X Men of future past | julia shaw | kodak black m4a | Adobe CS5 5 Master Collection | female asian | welcome to thizz world mac dre | cassie b f f | Rock n Roll on the Road |