Quick Browse
Movies
TV shows
Music
Games
Applications
Anime
Other

Donate and Support

Friends
Torrents.me
Torrent Download
Free Movies
1337x
RARBG
Torrent Downloads

Verified torrent The Iron Lady 2011 CAM READNFO XViD - INSPiRAL


    Seeders : 0      Leechers : 0
Hash :12CFF2CD16834AF5B0A3D2A5AF5FC65DF3439EF4
Added :1 Year+ by memory100Verified torrent uploader in Movies
Size :1.39 GB
Stream :Watch Full Movies Online @ Movie4u
Share :


The Iron Lady 2011 CAM READNFO XViD - INSPiRAL
Anonymous and free Direct Download







Warning! Do not Download Torrents Without a VPN!
Your IP Address is .   And Location is
Your Internet Provider and Government can track your torrent Activity!  Hide your IP ADDRESS with a VPN!
We Strongly Recommend Using SpyOFF Torrent VPN to Anonymize your Torrenting. It's FREE For 15 Days!

Note :

Please Update (Trackers Info) Before Downloading Torrents to See Updated Seeders And Leechers for Batter Download Speed.

Trackers List

Tracker NameLast CheckStatusSeedersLeechers




Torrent File Content (7 files)


The Iron Lady 2011 CAM READNFO XViD - INSPiRAL
     HDSceneRG.txt -
115 bytes

     SAMPLE - INSPiRAL.avi -
20.89 MB

     The Iron Lady 2011 CAM READNFO XViD - INSPiRAL.avi -
1.37 GB

     The Iron Lady 2011 CAM READNFO XViD - INSPiRAL.nfo -
3.56 KB

     Torrent downloaded from Demonoid.me.txt -
46 bytes

     att-networks.com.txt -
39 bytes

     sceneunderground.org.txt -
77 bytes



Description



http://img94.imageshack.us/img94/6072/irondlady.jpg

[code]
TITLE:

The Iron Lady 2011 CAM READNFO XViD - INSPiRAL

IMDB:

http://www.imdb.com/title/tt1007029/


SOURCES:

VIDEO - French Video THANKS
AUDIO - 10 Downing ST THANKS
SUBS - None Add

STATS:

Video
ID : 0
Format : MPEG-4 Visual
Format profile : Advanced [email protected]
Format settings, BVOP : 2
Format settings, QPel : No
Format settings, GMC : No warppoints
Format settings, Matrix : Default (MPEG)
Muxing mode : Packed bitstream
Codec ID : XVID
Codec ID/Hint : XviD
Duration : 1h 40mn
Bit rate : 1 828 Kbps
Width : 720 pixels
Height : 304 pixels
Display aspect ratio : 2.35:1
Frame rate : 25.000 fps
Color space : YUV
Chroma subsampling : 4:2:0
Bit depth : 8 bits
Scan type : Progressive
Compression mode : Lossy
Bits/(Pixel*Frame) : 0.334
Stream size : 1.28 GiB (93%)
Writing library : XviD 64

Audio
ID : 1
Format : MPEG Audio
Format version : Version 1
Format profile : Layer 3
Codec ID : 55
Codec ID/Hint : MP3
Duration : 1h 40mn
Bit rate mode : Constant
Bit rate : 128 Kbps
Channel(s) : 2 channels
Sampling rate : 44.1 KHz
Compression mode : Lossy
Stream size : 91.6 MiB (7%)
Alignment : Split accross interleaves
Interleave, duration : 40 ms (1.00 video frame)
Interleave, preload duration : 500 ms



NOTES:

Ok had this video a while and no audio til now ....thanks to those at Nos 10
Readnfo ....well the video on a whole was very dark and needed some lov'in ,also missing 4-5 secs but nothing more and you
can't tell unless u were syncing it.
Workdone ....filtered the video and clean it up some,however still pretty dark and trust much,rise the brightness any higher
and it will look wasted out and .
Audio i needed to cut unwanted and then sync ...took 12 cuts in the end due to missing video etc...but got there in the end.
Also remastered the audio changing all EQ bands aswell as using a standard hiss removal filter.

Oh got to say the video is watermarked with a site URL ...no i didn't put it there,but didn't fancy having a big ... blur there either.
Last about 40 secs a time and appears 3-4 times throughout.

[/code]
Screens:
http://img825.imageshack.us/img825/5672/20019177.png

http://img20.imageshack.us/img20/2155/36236863.png

http://img24.imageshack.us/img24/6674/97938875.png

http://img39.imageshack.us/img39/3825/64922788.png

http://img819.imageshack.us/img819/7638/17785842.png

Related torrents

Torrent NameAddedSizeSeedLeechHealth
1 Year+ - in Movies1.37 GB00
1 Year+ - in Movies1.39 GB249
1 Year+ - in Movies1.37 GB112
1 Year+ - in Movies1.37 GB00
Verified torrent
1 Year+ - in Movies1.1 GB00

Comments (0 Comments)




Please login or create a FREE account to post comments

Latest Searches

| mates wife | jessica ryan sex | battlestar galactica series 2 complete | a managerial and systems approach | sindee Jennings babysitter | transporter 2008 nezu | electrosluts es 41872 cherry torn and riley reyes hd | toys uncensored | Strauss Rules of the Game | amanda blake trailer |