Quick Browse
Movies
TV shows
Music
Games
Applications
Anime
Other
Facebook
Advertising

Friends
Torrent Download
Movie4u
1337x.to
Torrent Downloads




Verified torrent The Iron Lady 2011 CAM READNFO XViD AC3-26K


    Seeders : 0      Leechers : 0
Hash :74DE51955511F420CE0144AAC75778DBA199057E
Added :1 Year+ by memory100Verified torrent uploader in Movies
Size :1.1 GB
Stream :WATCH ONLINE @ Movie4u


The Iron Lady 2011 CAM READNFO XViD AC3-26K
Free and Fast Download with Usenet 300GB+ free







Trackers List

Tracker NameLast CheckStatusSeedersLeechers




Torrent File Content (7 files)


The Iron Lady 2011 CAM READNFO XViD AC3-26K
     HDSceneRG.txt -
115 bytes

     The Iron Lady 2011 CAM READNFO XViD AC3-26K.avi -
1.07 GB

     The Iron Lady 2011 CAM READNFO XViD AC3-26K.nfo -
3.33 KB

     Torrent downloaded from Demonoid.me.txt -
46 bytes

     att-networks.com.txt -
39 bytes

     sample.avi -
22.79 MB

     sceneunderground.org.txt -
77 bytes



Description



http://img6.imageshack.us/img6/6072/irondlady.jpg

[code]
The Iron Lady 2011 CAM READNFO XViD AC3-26K

Imdb:
http://www.imdb.com/title/tt1007029/

Plot:
A look at the life of Margaret Thatcher, the former Prime Minister of the United Kingdom, with a focus on the price she paid for power.

Sources:
VIDEO - French Video THANKS
AUDIO - INSPIRAL!!

Notes:
VERY NICE CAM!! READNFO VIDEO DOES HAVE SOME BITS MISSING BUT OVER ALL A VERY GOOD CAM GUYZ.. ADDED A FEW FILTERS TO THE VIDEO TO MAKE IT LOOK NICE ENJOY!

Greetz:
Xtreme Encode|FYA|ILLUMANTI|CM8|RX|VISION|HDSCENE|NIGHTMAREZ|xTriLL|DTRG|CRYS|REMIXHD|BIDA|RX|REFILL|INSPiRAL|SIC|ZOMBIESZ|HOPE
To all the people who have helped me :P you know who you are

Anything to offer email us @: [email protected]

Video
ID : 0
Format : MPEG-4 Visual
Format profile : Advanced [email protected]
Format settings, BVOP : 2
Format settings, QPel : No
Format settings, GMC : No warppoints
Format settings, Matrix : Default (H.263)
Codec ID : XVID
Codec ID/Hint : XviD
Duration : 1h 40mn
Bit rate : 1 397 Kbps
Width : 720 pixels
Height : 304 pixels
Display aspect ratio : 2.35:1
Frame rate : 25.000 fps
Color space : YUV
Chroma subsampling : 4:2:0
Bit depth : 8 bits
Scan type : Progressive
Compression mode : Lossy
Bits/(Pixel*Frame) : 0.255
Stream size : 1 000 MiB (91%)
Writing library : XviD 63

Audio
ID : 1
Format : AC-3
Format/Info : Audio Coding 3
Mode extension : CM (complete main)
Codec ID : 2000
Duration : 1h 40mn
Bit rate mode : Constant
Bit rate : 128 Kbps
Channel(s) : 2 channels
Channel positions : Front: L R
Sampling rate : 44.1 KHz
Bit depth : 16 bits
Compression mode : Lossy
Stream size : 91.6 MiB (8%)
Alignment : Aligned on interleaves
Interleave, duration : 35 ms (0.87 video frame)

[/code]
Screens:
http://img854.imageshack.us/img854/8035/vlcsnap2012011720h23m08.png

http://img832.imageshack.us/img832/4968/vlcsnap2012011720h23m13.png

http://img828.imageshack.us/img828/84/vlcsnap2012011720h23m18.png

http://img846.imageshack.us/img846/7053/vlcsnap2012011720h23m37.png

http://img843.imageshack.us/img843/9921/vlcsnap2012011720h24m09.png



http://img851.imageshack.us/img851/5503/26ks.jpg

Thank you smallz for banner!

Related torrents

Torrent NameAddedSizeSeedLeechHealth
1 Year+ - in Movies1.37 GB112
1 Year+ - in Movies1.37 GB00
1 Year+ - in Movies1.37 GB00
1 Year+ - in Movies1.39 GB249
Verified torrent
1 Year+ - in Movies1.39 GB00

Comments (0 Comments)




Please login or create a FREE account to post comments

Latest Searches

| My Friends Tigger Pooh A Super Sleuth Christmas Movie | Blackzilla is Splittin That Shitter 2 | traff epub | hallmark 720p HDTV | Teachers 2 digital playground 720p | i ll be good | Charles Hamilton Hamilton Charles | pics girls nude | Barbie The Princess And The Popstar 2012 DVDRip 720p Dual Audio | the looney tunes show 2011 s02e04 |