Quick Browse
Movies
TV shows
Music
Games
Applications
Anime
Other
Facebook
Advertising

Friends
Torrent Download
Movie4u
1337x.to
Torrent Downloads




Verified torrent The Killing Jar [DVD5] [ENG] [AC3] [Hannspree]


    Seeders : 0      Leechers : 2
Hash :770D6DDD821B703522D1519B5A73A9FAE9AFB381
Added :1 Year+ by HannspreeVerified torrent uploader in Movies
Size :1.16 GB
Stream :WATCH ONLINE @ Movie4u


The Killing Jar [DVD5] [ENG] [AC3] [Hannspree]
Free and Fast Download with Usenet 300GB+ free







Trackers List

Tracker NameLast CheckStatusSeedersLeechers




Torrent File Content (13 files)


The Killing Jar
    The Killing Jar [DVD]
          VIDEO_TS/VIDEO_TS.BUP -
12 KB

          VIDEO_TS/VIDEO_TS.IFO -
12 KB

          VIDEO_TS/VIDEO_TS.VOB -
58 KB

          VIDEO_TS/VTS_01_0.BUP -
64 KB

          VIDEO_TS/VTS_01_0.IFO -
64 KB

          VIDEO_TS/VTS_01_0.VOB -
58 KB

          VIDEO_TS/VTS_01_1.VOB -
1023.97 MB

          VIDEO_TS/VTS_01_2.VOB -
168.21 MB

          The Killing Jar [Images]/The Killing Jar [Cover].jpg -
48.98 KB

          The Killing Jar [Images]/The Killing Jar [Disc].jpg -
72.54 KB

          The Killing Jar [Images]/The Killing Jar [Screens].jpg -
129.87 KB

     The Killing Jar.NFO -
3.72 KB

     Torrent downloaded from Demonoid.com.txt -
47 bytes



Description



=====================================================================================
[ Another free, high quality, ready to burn DVD I will be adding new torrents on a daily basis - Remember to seed ]
=====================================================================================
MOVIE TITLE: The Killing Jar
LANGUAGE: English
MOVIE SUBS: No
BURN TESTED: Yes
FORMAT: Pal
GENRE: Drama
RUNTIME: 92 Minutes
YEAR: 2010
IMDB LINK: http://www.imdb.com/title/tt1270296/
=====================================================================================
MOVIE DESC:

A stranger armed with a shotgun takes seven patrons hostage in a remote roadside diner. But as the body count increases, the desperate survivors discover that one of the hostages may be even more dangerous than their captor
=====================================================================================
MOVIE SPECS:

GENERAL:
Complete name : The Killing Jar [DVD5]
Format : MPEG-PS
File size : 1.16 GB
Duration : 92 Minutes
Overall bit rate : 1 893 Kbps

VIDEO:
ID : 224 (0xE0)
Format : MPEG Video
Format version : Version 2
Format profile : [email protected]
Format settings, BVOP : Yes
Format settings, Matrix : Default
Duration : 92 Minutes
Bit rate mode : Variable
Bit rate : 1 663 Kbps
Nominal bit rate : 9 608 Kbps
Width : 720 pixels
Height : 576 pixels
Display aspect ratio : 16:9
Frame rate : 25.000 fps
Standard : PAL
Color space : YUV
Chroma subsampling : 4:2:0
Bit depth : 8 bits
Scan type : Progressive
Bits/(Pixel*Frame) : 0.160
Stream size : 900 MiB (88%)

AUDIO:
ID : 128 (0x80)
Format : AC-3
Format/Info : Audio Coding 3
Mode extension : CM (complete main)
Duration : 92 Minutes
Bit rate mode : Constant
Bit rate : 192 Kbps
Channel(s) : 2 channels
Channel positions : Front: L R
Sampling rate : 48.0 KHz
Stream size : 104 MiB (10%)
=====================================================================================
TRACKERS:
http://inferno.demonoid.com:3402/announce
http://denis.stalker.h3q.com:6969/announce
http://nemesis.1337x.org/announce
http://exodus.1337x.org/announce
http://tracker.publicbt.com/announce
http://10.rarbg.com/announce
http://tracker.ilibr.org:6969/announce
http://tpb.tracker.prq.to/announce
http://rt.beeretracker.net/announce.php
http://red.tracker.prq.to/announce
http://tracker.torrentbox.com:2710/announce
=====================================================================================
[FOOT NOTE]
If you are happy with this download, it would be nice to hear your views or comments that you might have. Enjoy
=====================================================================================
Screen Shot Of The Killing Jar
=====================================================================================
http://leetpic.com/images/thekilling.jpg

=====================================================================================

Related torrents

Torrent NameAddedSizeSeedLeechHealth
Verified torrent
1 Year+ - in Movies1.06 GB21
Verified torrent
1 Year+ - in Movies1.63 GB03
Verified torrent
1 Year+ - in Movies1.22 GB00
Verified torrent
1 Year+ - in Movies1.36 GB30
Verified torrent
1 Year+ - in Movies3.39 GB15

Comments (0 Comments)




Please login or create a FREE account to post comments

Latest Searches

| jessie volt malkova | Swedish Erotica Kandi Barbour SuperRod | Beautiful Russian With Cute Pink Nipples | golden ladies | a puddle of mud | 7 and 5 whisper to me | Pacific rim eng 1080p | in cold blood | foxy hunter | Smokin son |