Quick Browse
Movies
TV shows
Music
Games
Applications
Anime
Other
Facebook
Advertising

Friends
Torrent Download
Movie4u
1337x.to
Torrent Downloads




Verified torrent The Killing Room [DVD5] [ENG] [AC3] [Hannspree]


    Seeders : 2      Leechers : 1
Hash :9BD8DD32799ACA945363E5BDDD2D84E4E7127718
Added :1 Year+ by HannspreeVerified torrent uploader in Movies
Size :1.06 GB
Stream :WATCH ONLINE @ Movie4u


The Killing Room [DVD5] [ENG] [AC3] [Hannspree]
Free and Fast Download with Usenet 300GB+ free







Trackers List

Tracker NameLast CheckStatusSeedersLeechers




Torrent File Content (13 files)


The Killing Room
    The Killing Room [DVD]
          VIDEO_TS/VIDEO_TS.BUP -
12 KB

          VIDEO_TS/VIDEO_TS.IFO -
12 KB

          VIDEO_TS/VIDEO_TS.VOB -
58 KB

          VIDEO_TS/VTS_01_0.BUP -
66 KB

          VIDEO_TS/VTS_01_0.IFO -
66 KB

          VIDEO_TS/VTS_01_0.VOB -
58 KB

          VIDEO_TS/VTS_01_1.VOB -
1023.97 MB

          VIDEO_TS/VTS_01_2.VOB -
63.34 MB

    The Killing Room [Images]
          The Killing Room [Cover].jpg -
72.1 KB

          The Killing Room [Disc].jpg -
61.51 KB

          The Killing Room [Screens].jpg -
108.71 KB

     The Killing Room.NFO -
4.23 KB

     Torrent downloaded from 1337x.org.txt -
44 bytes



Description



=====================================================================================
[ Another free, high quality, ready to burn DVD I will be adding new torrents on a daily basis - Remember to seed ]
=====================================================================================
MOVIE TITLE: The Killing Room
LANGUAGE: English
MOVIE SUBS: No
BURN TESTED: Yes
FORMAT: Pal
GENRE: Drama | Horror | Thriller
RUNTIME: 92 Minutes
YEAR: 2009
IMDB LINK: http://www.imdb.com/title/tt1119191/
=====================================================================================
MOVIE DESC:

Four volunteers sign up for what initially appears to be a typical paid research study, only to discover that they've unwittingly become involved with a classified government program that was said to have been terminated nearly two decades ago, in this tense psychological thriller from director Jonathan Liebesman. The allure of a little extra cash proving too powerful to resist, four strangers decide to partake in a paid research study. As the study gets underway, the group is presented with a series of questions, and given a finite window of time in which each individual member must submit a unique numerical answer. At first, the participants all assume that the subject who gives the most obviously incorrect answer will be removed from the experiment, though it doesn't take long for the group to realize that the correct answer isn't always the answer that the researchers are looking for. Meanwhile, as the brooding Dr. Phillips (Peter Stormare) attempts to manipulate the study to get the answers he wants, the newest member of his team, military psychologist Ms. Reilly (Chloe Sevigny) begins questioning the ethics of such a diabolical experiment
=====================================================================================
MOVIE SPECS:

GENERAL:
Complete name : The Killing Room [DVD5]
Format : MPEG-PS
File size : 1.06 GB
Duration : 92 Minutes
Overall bit rate : 1 589 Kbps

VIDEO:
ID : 224 (0xE0)
Format : MPEG Video
Format version : Version 2
Format profile : [email protected]
Format settings, BVOP : Yes
Format settings, Matrix : Default
Duration : 92 Minutes
Bit rate mode : Variable
Bit rate : 1 365 Kbps
Nominal bit rate : 9 608 Kbps
Width : 720 pixels
Height : 576 pixels
Display aspect ratio : 16:9
Frame rate : 24.000 fps
Standard : PAL
Color space : YUV
Chroma subsampling : 4:2:0
Bit depth : 8 bits
Scan type : Progressive
Scan order : 2:2:2:2:2:2:2:2:2:2:2:3 Pulldown
Bits/(Pixel*Frame) : 0.137
Stream size : 880 MiB (86%)

AUDIO:
ID : 128 (0x80)
Format : AC-3
Format/Info : Audio Coding 3
Mode extension : CM (complete main)
Duration : 92 Minutes
Bit rate mode : Constant
Bit rate : 192 Kbps
Channel(s) : 2 channels
Channel positions : Front: L R
Sampling rate : 48.0 KHz
Stream size : 124 MiB (12%)
=====================================================================================
TRACKERS:
http://exodus.1337x.org/announce
http://tracker.ilibr.org/announce
http://tpb.tracker.prq.to/announce
http://red.tracker.prq.to/announce
http://gemini.tracker.prq.to/announce
http://tracker.openbittorrent.com/announce
http://11.rarbg.com/announce
=====================================================================================
[FOOT NOTE]
If you are happy with this download, it would be nice to hear your views or comments that you might have. Enjoy
=====================================================================================
Screen Shot Of The Killing Room
=====================================================================================
http://leetpic.com/images/thekilqvq.jpg

=====================================================================================
http://torrent-stats.info/e5bd/cee65719.png

=====================================================================================

Related torrents

Torrent NameAddedSizeSeedLeechHealth
Verified torrent
1 Year+ - in Movies1.16 GB02
Verified torrent
1 Year+ - in Movies1.63 GB03
Verified torrent
1 Year+ - in Movies1.22 GB00
Verified torrent
1 Year+ - in Movies1.36 GB30
Verified torrent
1 Year+ - in Movies3.39 GB15

Comments (0 Comments)




Please login or create a FREE account to post comments

Latest Searches

| the bourne identity spa | Nora Riley Live | Meghan trainor like Im gonna lose you ft john legend | gdrf seikon no qwaser 06 h 264 1280x720 mp4 | Adobe Audition CC 2017 v10 0 1 8 x64 | tsseduction marie aubrey | Adobe Audition CC 2017 v10 0 1 8 x64 | higher Mike | revolution 2012 s01e14 xvid ajaxen avi | Gang Starr ft |