Quick Browse
Movies
TV shows
Music
Games
Applications
Anime
Other
Facebook
Advertising

Friends
Torrent Download
Movie4u
1337x.to
Torrent Downloads




The Killing S01E07 HDTV XviD Eng Sub Ita [IDN_CREW]


    Seeders : 2      Leechers : 11
Hash :095C78C46FC3F0053FFA620B46D95FCD4E61BC1C
Added :1 Year+ by manny02Verified torrent uploader in TV shows
Size :350.01 MB
Stream :WATCH ONLINE @ Movie4u


The Killing S01E07 HDTV XviD Eng Sub Ita [IDN_CREW]
Free and Fast Download with Usenet 300GB+ free







Trackers List

Tracker NameLast CheckStatusSeedersLeechers




Torrent File Content (2 files)


The.Killing.S01E07.HDTV.XviD.Eng_Sub.Ita-[IDN_CREW]
     IDN_CREW Leggimi.txt -
294 bytes

     The.Killing.S01E07.HDTV.XviD.Eng_Sub.Ita-[IDN_CREW].avi -
350.01 MB



Description



[color=red]THE KILLING
HDTV ENG SUB ITA[/color]

 http://img684.imageshack.us/img684/93/thekilling.jpg



http://img514.imageshack.us/img514/1502/inforelease.png


[color=red]
[color=black]Titolo:[/color] The Killing
[color=black]Anno: [/color]2011
[color=black]Nazionalità: [/color]United States
[color=black]Genere:[/color] Drammatico - Poliziesco
[color=black]Lingua:[/color] Inglese
[color=black]Stagione:[/color] 1
[color=black]Episodi:[/color] 13
[color=black]Durata Episodio:[/color] 45 min ca (episodio)
[color=black]Ideatore:[/color] Veena Sud
[color=black]Produzione:[/color] Fox Television Studios, Killing Production [color=black]
Fonti:[/color] [color=black] http://it.wikipedia.org/wiki/The_Killing_(serie_televisiva)
http://www.amctv.com/shows/the-killing [/color]
[/color]

http://img685.imageshack.us/img685/5835/casta.png


RUOLI
[color=red]INTERPRETI[/color]


Mireille Enos
[color=red]Sarah Linden[/color]
È una detective del dipartimento di polizia di Seattle. Silenziosa e acuta osservatrice, conduce una vita solitaria con il figlio Jack. È pronta a sposarsi con il fidanzato Rick Felder e a trasferirsi con lui nella città californiana di Sonoma, ma l'omicidio di Rosie Larson rimanda i suoi i piani.

Bill Campbell
[color=red]Darren Richmond[/color]
È un consigliere comunale, nonché candidato per l'elezione a sindaco. Ha perso la moglie da qualche anno e ora conduce una relazione sentimentale con Gwen Eaton, membro del suo staff, con cui pianifica di andare a vivere insieme dopo le elezioni.

Joel Kinnaman
[color=red]Stephen Holder[/color]
È un ex detective della narcotici che ha ottenuto la promozione alla squadra omicidi. Appena arrivato a Seattle per sostuite Sarah Linden, si ritroverà ad ingare con lei sull'omicidio di Rosie Larson.

Michelle Forbes
[color=red]Mitch Larsen[/color]
È una casalinga, madre di Rosie Larsen e di altri due figli più piccoli, Denny e Tom.

Brent Sexton
[color=red]Stanley Larsen[/color]
È il marito di Mitch, con cui è sposato da 17 anni, e titolare di una piccola azienda di trasporto merci.

Kristin Lehman
[color=red]Gwen Eaton[/color]
È una consigliera di Darren Richmond, nonché sua amante, appartenente ad una delle più influenti famiglie di Seattle. È determinata a tenere la sua relazione con Darren segreta per non danneggiare la sua campagna elettorale.

Eric Ladin
[color=red]Jamie Wright[/color]
È il capo-staff che guida la campagna elettorale di Richmond.

Katie Findlay
[color=red]Rosie Larson[/color]
È la vittima dell'omicidio.

http://img153.imageshack.us/img153/7608/tramao.png


[color=beige] A Seattle una giovane ragazza, Rosie Larsen, viene uccisa. La trama intreccia tre aspetti connessi all'omicidio: le indagini della detective Sarah Linden, affiancata dal collega Stephen Holder; il dolore che colpisce la famiglia della vittima; e un gruppo di politici locali che rischia di vedersi compromessa la campagna elettorale. Con la prosecuzione della storia, diventa chiaro che non ci sono casualità e ognuno dei personaggi coinvolti si porta dietro un segreto che gli impedisce di poter voltare pagina.
[/color]

[color=black]Episodi[/color]

[color=red]1. Pilot
2. The Cage
3. El Diablo
4. A Soundless Echo
5. Super 8
6. What You Have Left
7. Vengeance
8.
9.
10.

[/color]

http://img190.imageshack.us/img190/7663/recension.png


[color=black] The Killing è una serie televisiva statunitense poliziesca prodotta dalla Fox Television Studios e dalla Fuse Entertainment per la rete televisiva via cavo AMC, che l'ha trasmessa a partire dal 3 aprile 2011.

The Killing, si presenta come un crime/mistery drama dalla narrazione coinvolgente e avvincente. Basata su un format danese, seppure lontanamente, la serie ha qualcosa in comune anche con 24, perché ciasuno dei 13 episodi si sviluppa con precisione minuziosa nell’arco di una giornata, durante la quale i protagonisti - in primis la detective Sarah Linden interpretata da Mireille Enos - porteranno avanti l'indagine su un contorto caso di omicidio.
[/color]

http://img529.imageshack.us/img529/7286/datifile.png


Lingua: Inglese

Sottotitoli: Italiano impressi a video
[color=red]Ringraziamenti ad ITASA italiansubs[/color]

Programma Usato: Avirecomp


[color=black] General
Complete name : The.Killing.S01E07.HDTV.XviD.Eng_Sub.Ita-[IDN_CREW].avi
Format : AVI
Format/Info : Audio Video Interleave
File size : 350 MiB
Duration : 44mn 49s
Overall bit rate : 1 092 Kbps
Writing application : VirtualDubMod 1.5.10.2 (build 2542/release)
Writing library : VirtualDubMod build 2542/release

Video
Format : MPEG-4 Visual
Format profile : Streaming [email protected]
Format settings, BVOP : Yes
Format settings, QPel : No
Format settings, GMC : No warppoints
Format settings, Matrix : Default
Muxing mode : Packed bitstream
Codec ID : XVID
Codec ID/Hint : XviD
Duration : 44mn 49s
Bit rate : 941 Kbps
Width : 624 pixels
Height : 352 pixels
Display aspect ratio : 16/9
Frame rate : 23.976 fps
Resolution : 24 bits
Colorimetry : 4:2:0
Scan type : Progressive
Bits/(Pixel*Frame) : 0.179
Stream size : 302 MiB (86%)
Writing library : XviD 62

Audio
Format : MPEG Audio
Format version : Version 1
Format profile : Layer 3
Codec ID : 55
Codec ID/Hint : MP3
Duration : 44mn 49s
Bit rate mode : Variable
Bit rate : 138 Kbps
Channel(s) : 2 channels
Sampling rate : 48.0 KHz
Resolution : 16 bits
Stream size : 44.3 MiB (13%)
Alignment : Aligned on interleaves
Interleave, duration : 24 ms (0.58 video frame)
Interleave, preload duration : 319 ms


[/color]

http://img20.imageshack.us/img20/4974/screenshotsph.png


[color=red]Immagini catturate con VLC Media Player[/color]

http://img38.imageshack.us/img38/5913/vlcsnap2011041519h29m58.png

http://img687.imageshack.us/img687/9493/vlcsnap2011041519h30m14.png

http://img545.imageshack.us/img545/4342/vlcsnap2011041519h30m22.png

http://img155.imageshack.us/img155/3961/vlcsnap2011041519h30m32.png

http://img339.imageshack.us/img339/2892/vlcsnap2011041519h31m06.png


Related torrents

Torrent NameAddedSizeSeedLeechHealth
1 Year+ - in TV shows340 MB00
1 Year+ - in TV shows338.99 MB10
Verified torrent
1 Year+ - in TV shows469.09 MB05
1 Year+ - in TV shows358.09 MB10
1 Year+ - in TV shows723.11 MB21

Comments (0 Comments)




Please login or create a FREE account to post comments

Latest Searches

| Anya Olsen Phoenix Marie | wainwright the man who loved the lakes | apple dumpling gang rides again dvdrip h264 bookerdog | enchanted x265 1080p | hard 16 | WowGirls 16 12 07 Nancy A Ice Cream Tease 1080p MP4 KTR | SHERLOCK PARODY EPISODE | Aerosmith Rock This Way 2009 | suits season 5 eps 11 16 | the teachers choice |