Quick Browse
Movies
TV shows
Music
Games
Applications
Anime
Other
Facebook
Advertising

Friends
Torrent Download
Movie4u
1337x.to
Torrent Downloads




Verified torrent The Last House On The Left [DVD] [ENG] [AC3] [Hannspree]


    Seeders : 6      Leechers : 2

Trackers List

Tracker NameLast CheckStatusSeedersLeechers




Torrent File Content (16 files)


The Last House On The Left
    The Last House On The Left [DVD]
          VIDEO_TS/VIDEO_TS.BUP -
12 KB

          VIDEO_TS/VIDEO_TS.IFO -
12 KB

          VIDEO_TS/VIDEO_TS.VOB -
58 KB

          VIDEO_TS/VTS_01_0.BUP -
68 KB

          VIDEO_TS/VTS_01_0.IFO -
68 KB

          VIDEO_TS/VTS_01_0.VOB -
60 KB

          VIDEO_TS/VTS_01_1.VOB -
1023.97 MB

          VIDEO_TS/VTS_01_2.VOB -
539.06 MB

    The Last House On The Left [Screens]
          The Last House On The Left [Screens].jpg -
126.24 KB

     The Last House On The Left.NFO -
4.3 KB

     Torrent downloaded from Ahashare.com.txt -
47 bytes

     Torrent downloaded from Demonoid.com.txt -
47 bytes

     Torrent downloaded from Genesis-sp.org.txt -
49 bytes

     Torrent downloaded from H33t.org.txt -
43 bytes

     Torrent downloaded from Limetorrents.com.txt -
51 bytes

     Torrent downloaded from Torrentsnet.com.txt -
48 bytes



Description



=====================================================================================
[ Another free, high quality, ready to burn DVD I will be adding new torrents on a daily basis - Remember to seed ]
=====================================================================================
MOVIE TITLE: The Last House On The Left
LANGUAGE: English
MOVIE SUBS: No - (subtitles if/when required)
BURN TESTED: Yes
FORMAT: Pal
GENRE: Crime | Drama | Thriller
RUNTIME: 114 Minutes
YEAR: 2009
IMDB LINK: http://www.imdb.com/title/tt0844708/
=====================================================================================
MOVIE DESC:

While being transported by two detectives in a car, the dangerous criminal Krug is rescued by his brother Francis and his girlfriend Sadie, and they brutally kill the detectives. Meanwhile Emma, her husband Dr. John and their seventeen year-old daughter Mari Collingwood head on vacation to their house nearby the lake. Mari borrows the family car to meet her friend Paige that is working in a store in the town. They befriend the teenager Justin in the store and he offers some marijuana to the pothead Paige in the motel where he is lodged. While they are smoking grass in Justin's room, Krug, who is Justin's father, Francis and Sadie arrive and abduct the girls. Krug drives Mari's car and she provokes a crash on a tree. Krug stabs Paige and rapes Mari, however, Mary manages to escape, swimming in the lake, but Krug shots her on the back. They walk through the isolated road in the woods and they reach Collingwood's house telling that they have just had a car accident. Emma and John welcome the strangers until they discover what happened to their beloved daughter.
=====================================================================================
MOVIE SPECS:

GENERAL:
Complete name : The Last House On The Left
Format : MPEG-PS
File size : 1.52 GB
Duration : 114 Minutes
Overall bit rate : 2 436 Kbps

VIDEO:
ID : 224 (0xE0)
Format : MPEG Video
Format version : Version 2
Format profile : [email protected]
Format settings, BVOP : Yes
Format settings, Matrix : Default
Duration : 114 Minutes
Bit rate mode : Variable
Bit rate : 2 196 Kbps
Nominal bit rate : 9 608 Kbps
Width : 720 pixels
Height : 576 pixels
Display aspect ratio : 16:9
Frame rate : 25.000 fps
Standard : PAL
Color space : YUV
Chroma subsampling : 4:2:0
Bit depth : 8 bits
Scan type : Progressive
Bits/(Pixel*Frame) : 0.212
Stream size : 923 MiB (90%)

AUDIO:
ID : 128 (0x80)
Format : AC-3
Format/Info : Audio Coding 3
Mode extension : CM (complete main)
Duration : 114 Minutes
Bit rate mode : Constant
Bit rate : 192 Kbps
Channel(s) : 2 channels
Channel positions : Front: L R
Sampling rate : 48.0 KHz
Stream size : 80.7 MiB (8%)
=====================================================================================
TRACKERS:
http://inferno.demonoid.com:3400/announce
http://pow7.com/announce
http://publicbt.ath.cx/announce
http://tracker.torrentbox.com:2710/announce
http://atrack.pow7.com/announce
http://denis.stalker.h3q.com:6969/announce
http://nemesis.1337x.org/announce
http://exodus.1337x.org/announce
http://tracker.publicbt.com/announce
http://10.rarbg.com/announce
http://tracker.ilibr.org:6969/announce
http://rt.beeretracker.net/announce.php
=====================================================================================
FOOT NOTE:
If you are happy with this download, it would be nice to hear your views or comments that you might have. Enjoy
=====================================================================================

Related torrents

Torrent NameAddedSizeSeedLeechHealth
1 Year+ - in Movies4.34 GB14
1 Year+ - in Movies700.46 MB3621
1 Year+ - in Other645.44 MB65
1 Year+ - in Movies4.37 GB00
1 Year+ - in Movies1.91 GB11

Comments (0 Comments)




Please login or create a FREE account to post comments

Latest Searches

| you know me | BigBootyTGirls Milagros Bejarano Just Tear My Ass Up 02 12 2016 720p rq mp4 | danielle soul busty blonde | dvdfab passkey crack 8 0 6 4 | young asian ass | wu tang clan ft | judas Ebook DMT | Prometheus German | larkinlove son creampies mom on his birthday | top 2009 january how to make 100 a day pdf |