Quick Browse
Movies
TV shows
Music
Games
Applications
Anime
Other
Facebook
Advertising

Friends
Torrent Download
Movie4u
1337x.to
Torrent Downloads




Verified torrent The Last Seven [DVD5] [ENG] [AC3] [Hannspree]


    Seeders : 0      Leechers : 0
Hash :4CDD5EAEABD1C6980DCEFF2EE25EF99721CF42CA
Added :1 Year+ by HannspreeVerified torrent uploader in Movies
Size :1.22 GB
Stream :WATCH ONLINE @ Movie4u


The Last Seven [DVD5] [ENG] [AC3] [Hannspree]
Free and Fast Download with Usenet 300GB+ free







Trackers List

Tracker NameLast CheckStatusSeedersLeechers




Torrent File Content (13 files)


The Last Seven
    The Last Seven [DVD5]
          VIDEO_TS/VIDEO_TS.BUP -
12 KB

          VIDEO_TS/VIDEO_TS.IFO -
12 KB

          VIDEO_TS/VIDEO_TS.VOB -
58 KB

          VIDEO_TS/VTS_01_0.BUP -
62 KB

          VIDEO_TS/VTS_01_0.IFO -
62 KB

          VIDEO_TS/VTS_01_0.VOB -
58 KB

          VIDEO_TS/VTS_01_1.VOB -
1023.97 MB

          VIDEO_TS/VTS_01_2.VOB -
226.1 MB

    The Last Seven [Images]
          The Last Seven [Cover].jpg -
66.14 KB

          The Last Seven [Disc].jpg -
71.93 KB

          The Last Seven [Screens].jpg -
125.22 KB

     The Last Seven.NFO -
3.69 KB

     Torrent downloaded from H33T.org.txt -
43 bytes



Description



=====================================================================================
[ Another free, high quality, ready to burn DVD I will be adding new torrents on a daily basis - Remember to seed ]
=====================================================================================
MOVIE TITLE: The Last Seven
LANGUAGE: English
MOVIE SUBS: No
BURN TESTED: Yes
FORMAT: Pal
GENRE: Thriller
RUNTIME: 85 Minutes
YEAR: 2010
IMDB LINK: http://www.imdb.com/title/tt1274273/
=====================================================================================
MOVIE DESC:

In a not-too-distant future, the face of London has changed dramatically. Stung by ineffectual politics, a rapidly expanding population and the ravages of climate change it can no longer take the strain and collapses in on itself. Down from 7 million, now only 7 individuals remain and together they must form a new society in the face of a desperate, unforgiving future.
=====================================================================================
MOVIE SPECS:

GENERAL:
Complete name : The Last Seven [DVD5]
Format : MPEG-PS
File size : 1.22 GB
Duration : 85 Minutes
Overall bit rate : 2 056 Kbps

VIDEO:
ID : 224 (0xE0)
Format : MPEG Video
Format version : Version 2
Format profile : [email protected]
Format settings, BVOP : Yes
Format settings, Matrix : Default
Duration : 85 Minutes
Bit rate mode : Variable
Bit rate : 1 823 Kbps
Nominal bit rate : 9 608 Kbps
Width : 720 pixels
Height : 576 pixels
Display aspect ratio : 16:9
Frame rate : 24.000 fps
Standard : PAL
Color space : YUV
Chroma subsampling : 4:2:0
Bit depth : 8 bits
Scan type : Progressive
Scan order : 2:2:2:2:2:2:2:2:2:2:2:3 Pulldown
Bits/(Pixel*Frame) : 0.183
Stream size : 908 MiB (89%)

AUDIO:
ID : 128 (0x80)
Format : AC-3
Format/Info : Audio Coding 3
Mode extension : CM (complete main)
Duration : 85 Minutes
Bit rate mode : Constant
Bit rate : 192 Kbps
Channel(s) : 2 channels
Channel positions : Front: L R
Sampling rate : 48.0 KHz
Stream size : 95.6 MiB (9%)
=====================================================================================
TRACKERS:
http://fr33dom.h33t.com:3310/announce
http://exodus.1337x.org/announce
http://tracker.ilibr.org/announce
http://tpb.tracker.prq.to/announce
http://red.tracker.prq.to/announce
http://tracker.openbittorrent.com/announce
http://gemini.tracker.prq.to/announce
http://11.rarbg.com/announce
=====================================================================================
[FOOT NOTE]
If you are happy with this download, it would be nice to hear your views or comments that you might have. Enjoy
=====================================================================================
Screen Shot Of The Last Seven
=====================================================================================
http://leetpic.com/images/thelastsev.jpg

=====================================================================================
http://torrent-stats.info/ff2e/e565381c.png

=====================================================================================

Related torrents

Torrent NameAddedSizeSeedLeechHealth
Verified torrent
1 Year+ - in Movies1.63 GB03
Verified torrent
1 Year+ - in Movies1.16 GB02
Verified torrent
1 Year+ - in Movies1.06 GB21
Verified torrent
1 Year+ - in Movies2.94 GB1434
Verified torrent
1 Year+ - in Movies2.98 GB2018

Comments (0 Comments)




Please login or create a FREE account to post comments

Latest Searches

| bella bellz 2016 | snoop dogg gs up | Wonders of the Solar System 2010 by Brian Cox Andrew Cohen ePub Dr Soc | Fitness Pole Dance Poses | 70yo | The Simpsons S28E08 HDTV x264 KILLERS ettv mkv | crazy ex girlfriend s01e16 720p hdtv x264 dimension ettv | Hindi Movie Video Songs Collection DVDRip | am rajah jikki duets tamil mp3 128kb men | nani TERI |