Quick Browse
Movies
TV shows
Music
Games
Applications
Anime
Other
Facebook
Advertising

Friends
Torrent Download
Movie4u
1337x.to
Torrent Downloads




Verified torrent The Lion King 3D VERSION(2011) DVDRip XviD-MAX


    Seeders : 0      Leechers : 0
Hash :976EAA51DDF4F3E98C256A694604FB24FBC09F1E
Added :1 Year+ by robyrsVerified torrent uploader in Movies
Size :839.98 MB
Stream :WATCH ONLINE @ Movie4u


The Lion King 3D VERSION(2011) DVDRip XviD-MAX
Free and Fast Download with Usenet 300GB+ free







Trackers List

Tracker NameLast CheckStatusSeedersLeechers




Torrent File Content (6 files)


The Lion King (2011) DVDRip XviD-MAX
     The Hangover 2 (2011) DVDRip XviD-MAXSPEED.nfo -
2.98 KB

     The Lion King (2011) DVDRip XviD-MAXSPEED www.torentz.3xforum.ro.avi -
839.98 MB

     Torrent downloaded from Demonoid.me.txt -
46 bytes

     Torrent downloaded from Extratorrent.com.txt -
40 bytes

     Torrent downloaded from h33t.com.txt -
32 bytes

     Torrent downloaded from Rarbg.com.txt -
33 bytes



Description



Image Links:

http://www.hotimg.com/direct/GtttnJ8.jpg

http://www.hotimg.com/direct/ghBqq84.jpg

http://www.hotimg.com/direct/vhrpADH.jpg

http://www.hotimg.com/direct/DACpGvX.jpg

Alternatives:

http://shareimage.org/images/wryjyxh2nqkybjwvt1xl.jpg


http://shareimage.org/images/gz0sg40h05l4my4knj9.jpg


http://shareimage.org/images/99nlbynw11kgmgl13wh.jpg


http://shareimage.org/images/bk8kpqj634uyekify2by.jpg


The Lion King 3D VERSION(2011) DVDRip XviD-MAX
Format : AVI
Format/Info : Audio Video Interleave
Format profile : OpenDML
Duration : 1h 37mn
Overall bit rate : 2 151 Kbps
Writing application : VirtualDubMod 1.5.10.2 (build 2542/release)
Writing library : VirtualDubMod build 2542/release
Original source form : MAX TORRENTZ
Copyright : SIGISMUNT

Video
ID : 0
Format : MPEG-4 Visual
Format profile : [email protected]
Format settings, BVOP : Yes
Format settings, QPel : No
Format settings, GMC : No warppoints
Format settings, Matrix : Custom
Codec ID : XVID
Codec ID/Hint : XviD
Duration : 1h 37mn
Bit rate : 1 950 Kbps
Width : 672 pixels
Height : 288 pixels
Display aspect ratio : 2.35:1
Frame rate : 29.970 fps
Resolution : 24 bits
Colorimetry : 4:2:0
Scan type : Progressive
Bits/(Pixel*Frame) : 0.336
Stream size : 1.33 GiB (91%)
Writing library : XviD 1.2.1 (UTC 2008-12-04)

Audio
ID : 1
Format : MPEG Audio
Format version : Version 1
Format profile : Layer 3
Codec ID : 55
Codec ID/Hint : MP3
Duration : 1h 37mn
Bit rate mode : Constant
Bit rate : 192 Kbps
Channel(s) : 2 channels
Sampling rate : 48.0 KHz
Resolution : 16 bits
Stream size : 134 MiB (9%)
Alignment : Aligned on interleaves
Interleave, duration : 24 ms (0.72 video frame)
Interleave, preload duration : 192 ms

http://www.imdb.com/title/tt0110357/

Source: DVDRip (perfect a/v/sync quality-original source resynced,sample included)
This torrent is not seedbox supported,please seed it to the MAX

Note:If you have something to offer as early releases,seedboxes,links,accounts,etc
please contact us on piratepedia[@]msn/gmail.com or our website torentz 3xforum ro

The Lion King (2011) DVDRip XviD-MAX Torrent Free Download


How To Get Your Maxspeed (uTorrent)

Torrent Client - Preferences - Bandwidth - Number of connections - Set aprox. 500 for each
Torrent Client - Preferences - BiTorrent - Protocol Encryption - Forced
Bandwidth Allocation - High (Set download/upload limit - Unlimited)
Stop Other Active Torrents - Start downloading and wait for connections.
Enjoy and Seed for at least 1:1 ratio. Don't forget to say thanks/leave reviews.
Before downloading you should check/google search sample "release name""sample".
Greets to all actual/future p2p/scene QUALITY groups and affiliate websites.
Don't trust IMDb robot or bad ratings,always watch some trailers first.
Ignore stupid comments/fake/mislabeled/no-DVDrips/CAM/TS/RAR uploads.
Please spread this release/torrent to your friends/forums/etc.
If you need translation subs visit some subtitles sites.
Report if you see online streaming or other spam links.
Recommended movie player VLC PLAYER.

Related torrents

Torrent NameAddedSizeSeedLeechHealth
1 Year+ - in Music101.42 MB04
Verified torrent
1 Year+ - in Movies803.03 MB12
1 Year+ - in Movies757.12 MB1,1991,071
7 months ago - in Movies1.96 GB00
1 Year+ - in Movies3.9 GB00

Comments (0 Comments)




Please login or create a FREE account to post comments

Latest Searches

| King David History | stati x | Taboo Family Vacation 2 A XXX Taboo Parody NEW 2016 WEB DL Split Scenes | by juanito | you are 16 | Joe Budden Rage The Machine | The Cable Guy 1996 720p BluRay x264 AC3 Ozlem | rush usS01 | trine collection | steve jobs man in machine 720p |