Quick Browse
Movies
TV shows
Music
Games
Applications
Anime
Other
Facebook
Friends
Torrent Download
Movie4u
1337x.to
Torrent Downloads

Verified torrent The Little Rascals


    Seeders : 1      Leechers : 9
Hash :4366696AA6523A6A082B72D7D71B8956B9A7A346
Added :1 Year+ by HannspreeVerified torrent uploader in Movies
Size :2.27 GB
Stream :WATCH ONLINE @ Movie4u


The Little Rascals
Anonymous and Direct Download 300GB+ free








Trackers List

Tracker NameLast CheckStatusSeedersLeechers




Torrent File Content (9 files)


The Little Rascals
    VIDEO_TS
          VIDEO_TS.BUP -
12 KB

          VIDEO_TS.IFO -
12 KB

          VIDEO_TS.VOB -
58 KB

          VTS_01_0.BUP -
62 KB

          VTS_01_0.IFO -
62 KB

          VTS_01_0.VOB -
58 KB

          VTS_01_1.VOB -
1023.97 MB

          VTS_01_2.VOB -
1023.97 MB

          VTS_01_3.VOB -
278.83 MB



Description



===============================================================================================
[ This torrent was uploaded by Hannspree on the 19th, June 2010 - I will be adding new torrents on a daily basis - Remember to seed ]
===============================================================================================
MOVIE TITLE: The Little Rascals
LANGUAGE: English
MOVIE SUBS: No - (subtitles if/when required)
===============================================================================================
MOVIE DESC:

Spanky and the members of the He-Man Woman Haters Club find out that Alfalfa has been courting Darla. After a trial they
sentence him to forget about her and other girls forever. Alfalfa is having trouble with his punishment, partularly since the
new rich kid is moving in on his territory, and he works to win her back. Meanwhile Butch and Woim are trying to steal the
gang's prized go-cart for the big derb coming up. The gang has monetary problems too, since they need to build a new
clubhouse, but are having a hard time raising the money.
===============================================================================================
MOVIE SPECS:

GENERAL:
Complete name : The Little Rascals
Format : MPEG-PS
File size : 2.27 GB
Duration : 83 Minutes
Overall bit rate : 3 627 Kbps

VIDEO:
ID : 224 (0xE0)
Format : MPEG Video
Format version : Version 2
Format profile : [email protected]
Format settings, BVOP : Yes
Format settings, Matrix : Default
Duration : 83 Minutes
Bit rate mode : Variable
Bit rate : 3 363 Kbps
Nominal bit rate : 9 608 Kbps
Width : 720 pixels
Height : 576 pixels
Display aspect ratio : 16:9
Frame rate : 24.000 fps
Standard : PAL
Color space : YUV
Chroma subsampling : 4:2:0
Bit depth : 8 bits
Scan type : Progressive
Scan order : 2:2:2:2:2:2:2:2:2:2:2:3 Pulldown
Bits/(Pixel*Frame) : 0.338
Stream size : 949 MiB (93%)

AUDIO:
ID : 128 (0x80)
Format : AC-3
Format/Info : Audio Coding 3
Mode extension : CM (complete main)
Duration : 83 Minutes
Bit rate mode : Constant
Bit rate : 192 Kbps
Channel(s) : 2 channels
Channel positions : Front: L R
Sampling rate : 48.0 KHz
Stream size : 54.2 MiB (5%)
===============================================================================================
STREAM:

Video: MPEG2 Video 720x576 (16:9) [Video]
Audio: Dolby AC3 48000Hz stereo [AC3]
===============================================================================================
TOTAL FILE SIZE:

2.27 GB (2,440,065,024 bytes)
===============================================================================================
TORRENT CONTENTS:

8 Files in 2 Folders (VIDEO_TS & AUDIO_TS)
===============================================================================================
IMDB LINK:

http://www.imdb.com/title/tt0110366/
===============================================================================================
[ Another Free, high quality and ready too burn DVD movie from Hannspree. More will follow very soon. Please do be patient until then ]
===============================================================================================

Related torrents

Torrent NameAddedSizeSeedLeechHealth
Last Month - in Other13.15 MB00
1 Year+ - in Movies1.08 GB00
1 Year+ - in Movies692.69 MB622438
1 Year+ - in Movies692.68 MB201137
1 Year+ - in Movies692.67 MB237158
1 Year+ - in Movies1.31 GB00

Comments (0 Comments)




Please login or create a FREE account to post comments

Latest Searches

| 5 28 6005 | chalottes web | windows 7 theme beauty and the beast | I Cream On Jeannie Studley Lamont | lenny cause i love u | ghostly mostly 3 | cumbias the | Princesse De Montpensier DVDRip | HEVC x265 HardX | cagin |