Quick Browse
Movies
TV shows
Music
Games
Applications
Anime
Other
Facebook
Advertising

Friends
Torrent Download
Movie4u
1337x.to
Torrent Downloads




Verified torrent The Longest Yard [2005] DVDRip x264 AAC-V3nom


    Seeders : 1      Leechers : 1
Hash :400BEE5FA94FA8BE60DE0D74E1511A074856A0FA
Added :1 Year+ by sebastianUb3rVerified torrent uploader in Movies
Size :351.35 MB
Stream :WATCH ONLINE @ Movie4u


The Longest Yard [2005] DVDRip x264 AAC-V3nom
Free and Fast Download with Usenet 300GB+ free







Trackers List

Tracker NameLast CheckStatusSeedersLeechers




Torrent File Content (13 files)


The Longest Yard [2005] DVDRip x264 AAC-V3nom
    Subs
          The Longest Yard [2005] DVDRip x264 AAC-V3nom [Eng].srt -
119.96 KB

          The Longest Yard [2005] DVDRip x264 AAC-V3nom [Cro].sub -
74.08 KB

    Torrent Download Site's
          Torrent downloaded from tracker.Btarena.org.txt -
43 bytes

          Torrent downloaded from Extratorrent.com.txt -
40 bytes

          Torrent Downloaded from Limetorrents.com.txt -
40 bytes

          Torrent downloaded from Thepiratebay.se.txt -
39 bytes

          Torrent downloaded from 1337x.org.txt -
33 bytes

          Torrent downloaded from Kat.ph.txt -
30 bytes

     The Longest Yard [2005] DVDRip x264 AAC-V3nom.m4v -
347.64 MB

     sample.m4v -
3.23 MB

     The Longest Yard [2005] DVDRip x264 AAC-V3nom.jpg -
151.58 KB

     V3nom.gif -
148.22 KB

     Torrent Uploaded by V3nom.txt -
25 bytes



Description



http://img402.imageshack.us/img402/9920/longestyard.jpg


[size=200][color=black]PLOT[/color][/size]

[code]Prison inmates form a football team to challenge
the prison guards.[/code]

[size=200][color=black]IMDB[/color][/size]

[code]http://www.imdb.com/title/tt0398165/[/code]

[size=200][color=black]MOVIE INFO[/color][/size]

[code]The Longest Yard [2005] DVDRip x264 AAC-V3nom

Format : MPEG-4
Format profile : Base Media / Version 2
Codec ID : mp42
File size : 348 MiB
Duration : 1h 48mn
Overall bit rate mode : Variable
Overall bit rate : 447 Kbps
Encoded date : UTC 2012-12-21 18:28:11
Tagged date : UTC 2012-12-21 18:54:16

Video
ID : 1
Format : AVC
Format/Info : Advanced Video Codec
Format profile : [email protected]
Format settings, CABAC : Yes
Format settings, ReFrames : 4 frames
Codec ID : avc1
Codec ID/Info : Advanced Video Coding
Duration : 1h 48mn
Bit rate mode : Variable
Bit rate : 318 Kbps
Width : 548 pixels
Height : 226 pixels
Display aspect ratio : 2.40:1
Frame rate mode : Constant
Frame rate : 25.000 fps
Color space : YUV
Chroma subsampling : 4:2:0
Bit depth : 8 bits
Scan type : Progressive
Bits/(Pixel*Frame) : 0.103
Stream size : 245 MiB (70%)
Writing library : x264 core 112

Audio
ID : 2
Format : AAC
Format/Info : Advanced Audio Codec
Format profile : LC
Codec ID : 40
Duration : 1h 48mn
Bit rate mode : Variable
Bit rate : 128 Kbps
Maximum bit rate : 236 Kbps
Channel(s) : 2 channels
Channel positions : Front: L R
Sampling rate : 48.0 KHz
Compression mode : Lossy
Delay relative to video : 80ms
Stream size : 99.6 MiB (29%)
Encoded date : UTC 2012-12-21 18:28:11
Tagged date : UTC 2012-12-21 18:54:12[/code]

[size=200][color=black]SCREENSHOTS[/color][/size]

http://img839.imageshack.us/img839/5158/thelongestyard2005dvdri.jpg


http://kastatic.com/i2/users/133df62bbf28e62494bb17fe11078f1a.gif
http://kastatic.com/i2/users/133df62bbf28e62494bb17fe11078f1a.gif

Related torrents

Torrent NameAddedSizeSeedLeechHealth
4 months ago - in Movies698.87 MB165
5 months ago - in Movies1.1 GB00
5 months ago - in Movies1.16 GB00
5 months ago - in Movies1.07 GB00
1 Year+ - in Movies1.07 GB00

Comments (0 Comments)




Please login or create a FREE account to post comments

Latest Searches

| desi cute couples fu ked on bed nicely | teen titans go s02e08 salty codgers 480p hdtv x264 msd | Van Morrison Poetry 4 Disk Set 2010 FLAC | tomorrow tomorrow club | dangerous grounds s01e03 | teasing naughty | Dani My Dads Hot Girlfriend | o Big Tymers | c h u d 1984 full movie | Udemy Docker Compose |