Quick Browse
Movies
TV shows
Music
Games
Applications
Anime
Other
Facebook
Advertising

Friends
Torrent Download
Movie4u
1337x.to
Torrent Downloads




The Magnificent Seven (2016)[BRRip 1080p x264 by alE13 AC3 DTS][Napisy PL Eng][Eng]


    Seeders : 0      Leechers : 0

Trackers List

Tracker NameLast CheckStatusSeedersLeechers




Torrent File Content (13 files)


The Magnificent Seven (2016)-alE13
    info
          2.jpg -
1.22 MB

          4.jpg -
534.42 KB

          cover.jpg -
474.55 KB

          Nostalgie11.jpg -
185.84 KB

          Torrent downloaded from alE13 torrents at BTScene.org.txt -
120 bytes

          Torrent downloaded from alE13 at torrents at ahashare.com.txt -
98 bytes

          torrent downoloadet from auratorrent.txt -
93 bytes

          Torrent downloaded from demonoid.pw.txt -
46 bytes

    subtitles
          The Magnificent Seven (2016)-alE13.rar -
71.98 KB

     The Magnificent Seven (2016)-alE13 .mkv -
7.97 GB

     sample.mkv -
60.74 MB

     txt.jpg -
128.33 KB

     poster.jpg -
118.47 KB



Description



Movies : Western : HD 1080p / 1080i : English
The Magnificent Seven (2016)[BRRip 1080p x264 by alE13 AC3/DTS][Napisy PL/Eng][Eng]



http://www.filmweb.pl/film/Siedmiu+wspania%C5%82ych-2016-662836
http://www.imdb.com/title/tt2404435/

Plik zawiera Sample.

re?yseria: Antoine Fuqua
scenariusz: Nic Pizzolatto,Richard Wenk
gatunek: Western
produkcja: USA
premiera: 08-09-2016
muzyka: James Horner,Simon Franglen
zdj?cia: Mauro Fiore
czas: 2h 12mn

opis:

Seven gun men in the old west gradually come together to help a poor village against savage thieves.

"Siedmiu wspania?ych" wci?? s? histori? bandy wyrzutków, którzy by? mo?e pierwszy raz w ?yciu maj?
okazj? zrobi? co? dobrego dla innych. Obrona miasteczka przed psychopatycznym bogaczem (Peter Sarsgaard)
i armi? jego siepaczy pocz?tkowo wydaje si? jedynie biznesem. Z czasem okazuje si? jednak kwesti? zasad.
Fabu?a goni od jednej strzelaniny do drugiej, kowboje galopuj? po?ród majestatycznych krajobrazów prerii,
a wszelkie antagonizmy zostaj? za?egnane w trakcie obowi?zkowych nasiadów przy ognisku i w saloonie. Czyli
tak jak Ford, Hawks i Leone przykazali.






obsada:

Denzel Washington, Chris Pratt, Ethan Hawke

dane techniczne:

The Magnificent Seven (2016)-alE13 (1).mkv
Format : Matroska
Format version : Version 4 / Version 2
File size : 7.97 GiB
Duration : 2 h 12 min
Overall bit rate : 8 585 kb/s
Movie name : The Magnificent Seven (2016)-alE13
Encoded date : UTC 2016-12-15 20:34:38
Writing application : mkvmerge v8.1.0 ('Psychedelic Postcard') 64bit
Writing library : libebml v1.3.1 + libmatroska v1.4.2
Cover : Yes
Attachments : cover.jpg

Video
ID : 1
Format : AVC
Format/Info : Advanced Video Codec
Format profile : [email protected]/* */
Format settings, CABAC : Yes
Format settings, ReFrames : 2 frames
Codec ID : V_MPEG4/ISO/AVC
Duration : 2 h 12 min
Bit rate : 6 625 kb/s
Width : 1 920 pixels
Height : 804 pixels
Display aspect ratio : 2.40:1
Frame rate mode : Constant
Frame rate : 23.976 (24000/1001) FPS
Color space : YUV
Chroma subsampling : 4:2:0
Bit depth : 8 bits
Scan type : Progressive
Bits/(Pixel*Frame) : 0.179
Stream size : 6.15 GiB (77%)
Title : The Magnificent Seven (2016)-alE13
Writing library : x264 core 142
Default : Yes
Forced : No
Color range : Limited
Color primaries : BT.709
Transfer characteristics : BT.709
Matrix coefficients : BT.709

Audio #1
ID : 2
Format : AC-3
Format/Info : Audio Coding 3
Mode extension : CM (complete main)
Format settings, Endianness : Big
Codec ID : A_AC3
Duration : 2 h 12 min
Bit rate mode : Constant
Bit rate : 448 kb/s
Channel(s) : 6 channels
Channel positions : Front: L C R, Side: L R, LFE
Sampling rate : 48.0 kHz
Frame rate : 31.250 FPS (1536 spf)
Bit depth : 16 bits
Compression mode : Lossy
Stream size : 426 MiB (5%)
Title : The Magnificent Seven (2016)-alE13_AC3
Language : English
Default : No
Forced : No

Audio #2
ID : 3
Format : DTS
Format/Info : Digital Theater Systems
Mode : 16
Format settings, Endianness : Big
Codec ID : A_DTS
Duration : 2 h 12 min
Bit rate mode : Constant
Bit rate : 1 509 kb/s
Channel(s) : 6 channels
Channel positions : Front: L C R, Side: L R, LFE
Sampling rate : 48.0 kHz
Frame rate : 93.750 FPS (512 spf)
Bit depth : 16 bits
Compression mode : Lossy
Stream size : 1.40 GiB (18%)
Title : The Magnificent Seven (2016)-alE13_DTS_Original
Language : English
Default : No
Forced : No

Text #1
ID : 4
Format : UTF-8
Codec ID : S_TEXT/UTF8
Codec ID/Info : UTF-8 Plain Text
Duration : 2 h 6 min
Bit rate : 47 b/s
Count of elements : 1472
Stream size : 44.3 KiB (0%)
Title : The Magnificent Seven (2016)-alE13_Full
Language : English
Default : No
Forced : No

Text #2
ID : 5
Format : UTF-8
Codec ID : S_TEXT/UTF8
Codec ID/Info : UTF-8 Plain Text
Duration : 2 h 6 min
Bit rate : 35 b/s
Count of elements : 1051
Stream size : 33.2 KiB (0%)
Title : The Magnificent Seven (2016)-alE13
Language : Polish
Default : Yes
Forced : No

Menu
00:00:00.000 : en: 00:00:00.000
00:04:53.710 : en: 00:04:53.710
00:11:28.187 : en: 00:11:28.187
00:18:12.590 : en: 00:18:12.591
00:25:17.850 : en: 00:25:17.850
00:31:55.956 : en: 00:31:55.956
00:36:53.795 : en: 00:36:53.795
00:42:05.857 : en: 00:42:05.857
00:50:23.520 : en: 00:50:23.520
00:59:57.844 : en: 00:59:57.844
01:06:49.631 : en: 01:06:49.631
01:16:08.439 : en: 01:16:08.439
01:23:25.792 : en: 01:23:25.792
01:34:06.765 : en: 01:34:06.766
01:44:19.712 : en: 01:44:19.712
01:54:47.297 : en: 01:54:47.297
Facebook Twitter Google Digg Reddit LinkedIn StumbleUpon Email Show Demonoid some love with BitCoin: 1DNoidJdotDyNMm5CxA8XfbgCH8KsCjco3 How to get BitCoins?

Related torrents

Torrent NameAddedSizeSeedLeechHealth
8 months ago - in Movies8.1 GB00
26 days ago - in Movies7.76 GB00
6 months ago - in Movies7.88 GB00
4 months ago - in Movies8.09 GB00
4 months ago - in Movies7.64 GB00

Comments (0 Comments)




Please login or create a FREE account to post comments

Latest Searches

| Assassins Creed 2017 | rock train ac dc | Holiday Handjobs 2016 DVDRIP MP4 | nikki silver adi lockheart | shoot out in | compter en francais | The first Star Trek | THE BEAT 1980 | Daz3d Poser Classic Shoes for G2M | a series of unfortunate events Season 1 |