Quick Browse
Movies
TV shows
Music
Games
Applications
Anime
Other
Facebook
Friends
Torrent Download
Movie4u
1337x.to
Torrent Downloads

The Magnificent Seven 2016 BluRay 1080p 6CH AC3-OmiTube


    Seeders : 2      Leechers : 9
Hash :EF6E420AA5BB869885AEF915C9D78C3D6B0A1317
Added :3 months ago in Movies - Movies
Size :2.81 GB
Stream :WATCH ONLINE @ Movie4u


The Magnificent Seven 2016 BluRay 1080p 6CH AC3-OmiTube
Anonymous and Direct Download 300GB+ free








Trackers List

Tracker NameLast CheckStatusSeedersLeechers
udp://tracker.opentrackr.org:1337/announce3 months agosuccess28
udp://tracker.leechers-paradise.org:6969/announce3 months agosuccess17
udp://eddie4.nl:6969/announce3 months agosuccess17
udp://tracker.trackerfix.com:80/announce3 months agosuccess00
udp://p4p.arenabg.ch:1337/announce3 months agosuccess09
http://explodie.org:6969/announce3 months agosuccess01
udp://tracker.coppersurfer.tk:6969/announce3 months agosuccess06
http://tracker.tfile.me/announce3 months agosuccess08
udp://9.rarbg.me:2710/announce3 months agosuccess08




Torrent File Content (10 files)


The Magnificent Seven 2016 BluRay 1080p 6CH AC3-OmiTube
     OmiTube Info.txt -
124 bytes

    Sample and Snapshots
          Media Info.txt -
4.49 KB

          The Magnificent Seven 1.jpg -
750.86 KB

          The Magnificent Seven 2.jpg -
779.86 KB

          The Magnificent Seven 3.jpg -
798.88 KB

          The Magnificent Seven 4.jpg -
1009.8 KB

          The Magnificent Seven 5.jpg -
879.92 KB

          The Magnificent Seven Sample.mp4 -
27.95 MB

          Torrent downloaded from www.DNoid.me - Demonoid.txt -
56 bytes

     The Magnificent Seven 2016 BluRay 1080p OmiTube.mp4 -
2.78 GB



Description



Movies : Adventure : HD 1080p / 1080i : English


PG-13 | 2h 13min | Action, Adventure, Western | 23 September 2016 (USA)

With the town of Rose Creek under the deadly control of industrialist Bartholomew Bogue, the desperate townspeople employ protection from seven outlaws, bounty hunters, gamblers and hired guns - Sam Chisolm, Josh Farraday, Goodnight Robicheaux, Jack Horne, Billy Rocks, Vasquez, and Red Harvest. As they prepare the town for the violent showdown that they know is coming, these seven mercenaries find themselves fighting for more than money...

Denzel Washington, Chris Pratt, Ethan Hawke, Vincent D'Onofrio, Byung-hun Lee, Manuel Garcia-Rulfo, Martin Sensmeier, Haley Bennett.



Find us on:

Facebook: https://www.facebook.com/OmiTube.Online

YouTube: https://www.youtube.com/user/OmikronChannel

Thanks












YouTube Trailer: https://youtu.be/vIeaWRoH8Ec

Sample Included

General
Complete name : The Magnificent Seven 2016 BluRay 1080p OmiTube.mp4
Format : MPEG-4
Format profile : Base Media / Version 2
Codec ID : mp42 (isom/iso2/avc1/mp41)
File size : 2.78 GiB
Duration : 2 h 12 min
Overall bit rate : 2 993 kb/s
Movie name : OmiTube Online Movies
Writing application : HandBrake rev0 2014102499
Comment : OmiTube Online Movies

Video
ID : 1
Format : AVC
Format/Info : Advanced Video Codec
Format profile : [email protected]/* */
Format settings, CABAC : Yes
Format settings, ReFrames : 3 frames
Codec ID : avc1
Codec ID/Info : Advanced Video Coding
Duration : 2 h 12 min
Bit rate : 2 765 kb/s
Width : 1 920 pixels
Height : 800 pixels
Display aspect ratio : 2.40:1
Frame rate mode : Variable
Frame rate : 23.976 (24000/1001) FPS
Minimum frame rate : 23.974 FPS
Maximum frame rate : 23.981 FPS
Color space : YUV
Chroma subsampling : 4:2:0
Bit depth : 8 bits
Scan type : Progressive
Bits/(Pixel*Frame) : 0.075
Stream size : 2.57 GiB (92%)

Audio
ID : 2
Format : AC-3
Format/Info : Audio Coding 3
Mode extension : CM (complete main)
Format settings, Endianness : Big
Codec ID : ac-3
Duration : 2 h 12 min
Bit rate mode : Constant
Bit rate : 224 kb/s
Channel(s) : 6 channels
Channel positions : Front: L C R, Side: L R, LFE
Sampling rate : 48.0 kHz
Frame rate : 31.250 FPS (1536 spf)
Bit depth : 16 bits
Compression mode : Lossy
Stream size : 213 MiB (7%)
Title : Surround / Surround
Language : English
Default : Yes
Alternate group : 1
Facebook Twitter Google Digg Reddit LinkedIn StumbleUpon Email Show Demonoid some love with BitCoin: 1DNoidJdotDyNMm5CxA8XfbgCH8KsCjco3 How to get BitCoins?

Related torrents

Torrent NameAddedSizeSeedLeechHealth
Verified torrent
3 months ago - in Movies5.6 GB288604
Last Month - in Movies18.24 GB00
3 months ago - in Movies1.86 GB15
3 months ago - in Movies2.6 GB25
4 months ago - in Movies8.01 GB611

Comments (0 Comments)




Please login or create a FREE account to post comments

Latest Searches

| bossa music 2016 | syberia 3 game | Feud 720p HDTV x264 FLEET PRiME | rick ross touch N you ft usher | playboyplus sophie anne | Hacker 2016 | movie English 2017 1080p | Cara Wolf | CzechCasting Kristyna 7450 | Something wild |