Quick Browse
Movies
TV shows
Music
Games
Applications
Anime
Other
Facebook
Advertising

Friends
Torrent Download
Movie4u
1337x.to
Torrent Downloads




The Men Who Stare at Goats TS XviD - IMAGiNE


    Seeders : 1      Leechers : 0
Hash :BFEB51C053F4DEF814A052BC7A61E0593654C905
Added :1 Year+ in Movies
Size :1.17 GB
Stream :WATCH ONLINE @ Movie4u


The Men Who Stare at Goats TS XviD - IMAGiNE
Free and Fast Download with Usenet 300GB+ free







Trackers List

Tracker NameLast CheckStatusSeedersLeechers
udp://tracker.publicbt.com:80/announce1 Year+success10
udp://tracker.openbittorrent.com:80/announce1 Year+success10
udp://tracker.istole.it:80/announce1 Year+success00
http://exodus.desync.com:6969/announce1 Year+success00




Torrent File Content (3 files)


The.Men Who Stare at Goats TS XviD-IMAGiNE
     The.Men Who Stare at Goats TS XviD.avi -
1.15 GB

     Sample.avi -
18.53 MB

     The.Men Who Stare at Goats TS XviD-IMAGiNE.NFO -
5 KB



Description



http://i50.tinypic.com/9itl00.jpg


Screens:

http://i48.tinypic.com/2qw2cf5.jpg

http://i47.tinypic.com/2hdo0ed.jpg

http://i45.tinypic.com/2rxwp43.jpg


[code]Ripper ...........: IMAGiNE
IMDB Rating.......:6.9/10
Video Codec.......: XVID
Release Date......:13/12/09
Audio Codec.......:MP3
Theatre Date......:06/10/09
Audio Bitrate.....:128
Runtime.......:1h 27mn
Subtitles.........:NIL
Language..........:ENGLISH
Resolution...... 704 x 430
IMDb URL..........:http://www.imdb.com/title/tt1234548/


DETAILS:

Video
ID : 0
Format : MPEG-4 Visual
Format profile : [email protected]
Format settings, BVOP : Yes
Format settings, QPel : No
Format settings, GMC : No warppoints
Format settings, Matrix : Custom
Codec ID : XVID
Codec ID/Hint : XviD
Duration : 1h 27mn
Bit rate : 1 744 Kbps
Width : 704 pixels
Height : 430 pixels
Display aspect ratio : 1.637
Frame rate : 25.000 fps
Resolution : 24 bits
Colorimetry : 4:2:0
Scan type : Progressive
Bits/(Pixel*Frame) : 0.231
Stream size : 1.06 GiB (93%)
Writing library : XviD 1.2.1 (UTC 2008-12-04)

Audio
ID : 1
Format : MPEG Audio
Format version : Version 1
Format profile : Layer 3
Format_Settings_Mode : Joint stereo
Codec ID : 55
Codec ID/Hint : MP3
Duration : 1h 27mn
Bit rate mode : Constant
Bit rate : 128 Kbps
Channel(s) : 2 channels
Sampling rate : 44.1 KHz
Resolution : 16 bits
Stream size : 79.9 MiB (7%)
Alignment : Aligned on interleaves
Interleave, duration : 40 ms (1.00 video frame)
Interleave, preload duration : 391 ms[/code]

Related torrents

Torrent NameAddedSizeSeedLeechHealth
1 Year+ - in Movies1.17 GB07
1 Year+ - in Movies1.17 GB14167
1 Year+ - in Movies700.09 MB00
1 Year+ - in Movies700.09 MB63
1 Year+ - in Movies700.09 MB1783

Comments (0 Comments)




Please login or create a FREE account to post comments

Latest Searches

| omg edm | medianews | mase cant | kris kross amsterdam | kriss kross amsterdam | john prine john prine 1971 flac | modern arthur | Ariella Ferrera Suck Balls 5 | urban t i | Realms of Atlantis |