Quick Browse
Movies
TV shows
Music
Games
Applications
Anime
Other
Facebook
Friends
Torrent Download
Movie4u
1337x.to
Torrent Downloads

Verified torrent The Midnight Meat Train [2008] [DVD] [AC3] [Hannspree]


    Seeders : 0      Leechers : 2

Trackers List

Tracker NameLast CheckStatusSeedersLeechers




Torrent File Content (11 files)


The Midnight Meat Train
    The Midnight Meat Train - [DVD]
          The Midnight Meat Train - Covers/The Midnight Meat Train - Cover.jpg -
123.46 KB

          The Midnight Meat Train - Covers/The Midnight Meat Train - Disc.jpg -
71.83 KB

          The Midnight Meat Train - DVD/VIDEO_TS/VIDEO_TS.BUP -
12 KB

          The Midnight Meat Train - DVD/VIDEO_TS/VIDEO_TS.IFO -
12 KB

          The Midnight Meat Train - DVD/VIDEO_TS/VIDEO_TS.VOB -
58 KB

          The Midnight Meat Train - DVD/VIDEO_TS/VTS_01_0.BUP -
66 KB

          The Midnight Meat Train - DVD/VIDEO_TS/VTS_01_0.IFO -
66 KB

          The Midnight Meat Train - DVD/VIDEO_TS/VTS_01_0.VOB -
60 KB

          The Midnight Meat Train - DVD/VIDEO_TS/VTS_01_1.VOB -
1023.97 MB

          The Midnight Meat Train - DVD/VIDEO_TS/VTS_01_2.VOB -
687.7 MB

     The Midnight Meat Train - [DVD].NFO -
7.27 KB



Description



=========================================================================================================================
[ Another free and high quality, ready to burn DVD - I will be adding new torrents on a daily basis - Remember to seed ]
=========================================================================================================================
MOVIE TITLE: The Midnight Meat Train
LANGUAGE: English
MOVIE SUBS: No - (subtitles if/when required)
BURN TESTED: Yes
FORMAT: Pal
GENRE: Crime | Drama | Horror | Mystery | Thriller
RUNTIME: 94 Minutes
YEAR: 2008
IMDB LINK: http://www.imdb.com/title/tt0805570/
=========================================================================================================================
GENERAL MOVIE DESC:

The photographer Leon lives with his girlfriend and waitress Maya waiting for a chance to get in the photo business. When Maya contacts their friend Jurgis, he schedules a meeting for Leon with the successful owner of arts

gallery Susan Hoff she analyzes Leon's work and asks him to improve the quality of his photos. During the night, the upset Leon decides to wander on the streets taking pictures with his camera, and he follows three punks

down to the subway station when the gang attacks a young woman, Leon defends her and the guys move on.

On the next morning, Leon discovers that the woman is missing. He goes to the police station, but Detective Lynn Hadley does not give much attention to him and discredits his statement. Leon becomes obsessed to find

what happened with the stranger and he watches the subway station. When he sees the elegant butcher Mahogany in the train, Leon believes he might be a murderer and stalks him everywhere, in the beginning of his

journey to the darkness.
=========================================================================================================================
GENERAL MOVIE SPECS:

Complete name : The Midnight Meat Train
Format : MPEG-PS
File size : 1.67 GB
Duration : 94 Minutes
Overall bit rate : 2 709 Kbps

VIDEO:
ID : 224 (0xE0)
Format : MPEG Video
Format version : Version 2
Format profile : [email protected]
Format settings, BVOP : Yes
Format settings, Matrix : Default
Duration : 94 Minutes
Bit rate mode : Variable
Bit rate : 2 464 Kbps
Nominal bit rate : 9 608 Kbps
Width : 720 pixels
Height : 576 pixels
Display aspect ratio : 16:9
Frame rate : 25.000 fps
Standard : PAL
Color space : YUV
Chroma subsampling : 4:2:0
Bit depth : 8 bits
Scan type : Progressive
Bits/(Pixel*Frame) : 0.238
Stream size : 931 MiB (91%)

AUDIO:
ID : 128 (0x80)
Format : AC-3
Format/Info : Audio Coding 3
Mode extension : CM (complete main)
Duration : 94 Minutes
Bit rate mode : Constant
Bit rate : 192 Kbps
Channel(s) : 2 channels
Channel positions : Front: L R
Sampling rate : 48.0 KHz
Stream size : 72.6 MiB (7%)
=========================================================================================================================

Related torrents

Torrent NameAddedSizeSeedLeechHealth
1 Year+ - in Movies4.38 GB1216
1 Year+ - in Movies2.41 GB13
Verified torrent
1 Year+ - in Movies11.94 GB13
1 Year+ - in Other1.24 GB15
1 Year+ - in Other1.97 GB15

Comments (0 Comments)




Please login or create a FREE account to post comments

Latest Searches

| wwe divas s01e03 | BrazzersExxtra Bridgette B Ava Addams | Rise of the Tomb Raider 1 0 753 | Kanamachi 2013 | kiss make up | cars coffee | Blood and Chocolate | Allie Haze Interracial | kendall kayden my dads | die fight |