Quick Browse
Movies
TV shows
Music
Games
Applications
Anime
Other
Facebook
Advertising

Friends
Torrent Download
Movie4u
1337x.to
Torrent Downloads




Verified torrent The Muppets 2011 DVDSCR XViD AC3-26K


    Seeders : 1      Leechers : 0
Hash :49850905B514F6DBDBC7B783B6D0A10EA86BC423
Added :1 Year+ by memory100Verified torrent uploader in Movies
Size :1.93 GB
Stream :WATCH ONLINE @ Movie4u


The Muppets 2011 DVDSCR XViD AC3-26K
Free and Fast Download with Usenet 300GB+ free







Trackers List

Tracker NameLast CheckStatusSeedersLeechers




Torrent File Content (9 files)


The Muppets 2011 DVDSCR XViD AC3-26K
     HDSceneRG.txt -
115 bytes

     The Muppets 2011 DVDSCR XViD AC3-26K.avi -
1.89 GB

     The Muppets 2011 DVDSCR XViD AC3-26K.nfo -
3.19 KB

     Torrent downloaded from Demonoid.me.txt -
46 bytes

     Torrent downloaded from godlikeproductions.com.txt -
0 bytes

     Torrent downloaded from rarbg.com.txt.txt -
0 bytes

     att-networks.com.txt -
39 bytes

     sample.avi -
45.42 MB

     sceneunderground.org.txt -
77 bytes



Description



http://img577.imageshack.us/img577/6545/themuppets.jpg

[code]
The Muppets 2011 DVDSCR XViD AC3-26K

Imdb:
http://www.imdb.com/title/tt1204342/

Plot:
With the help of three fans, The Muppets must reunite to save their old theater from a greedy oil tycoon.

Sources:
THNXS SIC!!!

Notes:
ADDED A FEW FILTERS TO THE VIDEO TO MAKE IT LOOK NICE!! SO ENJOY!

Greetz:
Xtreme Encode|FYA|ILLUMANTI|CM8|RX|VISION|HDSCENE|NIGHTMAREZ|xTriLL|DTRG|CRYS|REMIXHD|BIDA|RX|REFILL|INSPiRAL|SIC|ZOMBIESZ|HOPE|Anonymous|GooN
To all the people who have helped me :P you know who you are

Anything to offer email us @: [email protected]

Video
ID : 0
Format : MPEG-4 Visual
Format profile : Advanced [email protected]
Format settings, BVOP : 1
Format settings, QPel : No
Format settings, GMC : No warppoints
Format settings, Matrix : Custom
Codec ID : XVID
Codec ID/Hint : XviD
Duration : 1h 42mn
Bit rate : 2 168 Kbps
Width : 720 pixels
Height : 416 pixels
Display aspect ratio : 16:9
Frame rate : 29.970 fps
Color space : YUV
Chroma subsampling : 4:2:0
Bit depth : 8 bits
Scan type : Progressive
Compression mode : Lossy
Bits/(Pixel*Frame) : 0.241
Stream size : 1.56 GiB (83%)
Writing library : XviD 64

Audio
ID : 1
Format : AC-3
Format/Info : Audio Coding 3
Mode extension : CM (complete main)
Codec ID : 2000
Duration : 1h 42mn
Bit rate mode : Constant
Bit rate : 448 Kbps
Channel(s) : 2 channels
Channel positions : Front: L R
Sampling rate : 44.1 KHz
Bit depth : 16 bits
Compression mode : Lossy
Stream size : 329 MiB (17%)
Alignment : Aligned on interleaves
Interleave, duration : 70 ms (2.09 video frames)
Interleave, preload duration : 209 ms

[/code]
Screens:
http://i.imgur.com/VQ9gS.png

http://i.imgur.com/csLRB.png

http://i.imgur.com/mhhQg.png

http://img24.imageshack.us/img24/5017/vlcsnap2012021822h12m53.png

http://img694.imageshack.us/img694/2121/vlcsnap2012021822h12m20.png

http://img403.imageshack.us/img403/8374/vlcsnap2012021822h12m46.png


http://img851.imageshack.us/img851/5503/26ks.jpg

Thank you smallz for banner!

Related torrents

Torrent NameAddedSizeSeedLeechHealth
Verified torrent
1 Year+ - in Movies1.28 GB01
1 Comments
1 Good
Verified torrent
1 Year+ - in Movies1.57 GB582547
Verified torrent
1 Year+ - in Movies1.22 GB10
1 Year+ - in Movies2.24 GB5547
Verified torrent
1 Year+ - in Movies2.24 GB00

Comments (0 Comments)




Please login or create a FREE account to post comments

Latest Searches

| momma let h | FIM Motocross 2009 RD13 Grand Prix of Czech Republic Loket MX1 | walking dead s07e07 state | Cut n | Jack Reacher 2012 720p BRrip x264 | bluray storks | Mea Melone Sweet Laddie | swebooks Programmering 1 C | mom son incest best | trudi canavan pdf |