Quick Browse
Movies
TV shows
Music
Games
Applications
Anime
Other
Facebook
Advertising

Friends
Torrent Download
Movie4u
1337x.to
Torrent Downloads




Verified torrent The New Daughter


    Seeders : 1      Leechers : 10
Hash :278E1F020FAFF7EAE6FDF0A64032A851958B60A1
Added :1 Year+ by HannspreeVerified torrent uploader in Movies
Size :1.97 GB
Stream :WATCH ONLINE @ Movie4u


The New Daughter
Free and Fast Download with Usenet 300GB+ free







Trackers List

Tracker NameLast CheckStatusSeedersLeechers




Torrent File Content (8 files)


The New Daughter
    VIDEO_TS
          VIDEO_TS.BUP -
12 KB

          VIDEO_TS.IFO -
12 KB

          VIDEO_TS.VOB -
58 KB

          VTS_01_0.BUP -
76 KB

          VTS_01_0.IFO -
76 KB

          VTS_01_0.VOB -
58 KB

          VTS_01_1.VOB -
1023.97 MB

          VTS_01_2.VOB -
995.48 MB



Description



===============================================================================================
[ This torrent was uploaded by Hannspree on the 19th, June 2010 - I will be adding new torrents on a daily basis - Remember to seed ]
===============================================================================================
MOVIE TITLE: The New Daughter
LANGUAGE: English
MOVIE SUBS: No - (subtitles if/when required)
===============================================================================================
MOVIE DESC:

John James is a writer his wife has left him. He moves with his two middle-school children to an isolated house off a dirt road in
South Carolina. The property has an Indian burial mound, which fascinates his daughter, Louisa, who's now entering adulthood.
Strange things noises on the roof and in the woods, the cat missing, Luisa sleepwalking clutching a straw doll no one's seen before.

She visits the mound often, staying late, coming home covered with mud. John's younger son, Sam, is frightened. John learns the
house has a history and seeks out the previous owner. Louisa's behavior becomes more bizarre. Is there an explanation?
An ant farm and a missing babysitter provide clues.
===============================================================================================
MOVIE SPECS:

GENERAL:
Complete name : The New Daughter
File size : 1.97 GB
Duration : 104 Minutes
Overall bit rate : 2 998 Kbps

VIDEO:
ID : 224 (0xE0)
Format : MPEG Video
Format version : Version 2
Format profile : [email protected]
Format settings, BVOP : Yes
Format settings, Matrix : Default
Duration : 104 Minutes
Bit rate mode : Variable
Bit rate : 2 746 Kbps
Nominal bit rate : 9 608 Kbps
Width : 720 pixels
Height : 576 pixels
Display aspect ratio : 16:9
Frame rate : 24.000 fps
Standard : PAL
Color space : YUV
Chroma subsampling : 4:2:0
Bit depth : 8 bits
Scan type : Progressive
Scan order : 2:2:2:2:2:2:2:2:2:2:2:3 Pulldown
Bits/(Pixel*Frame) : 0.276
Stream size : 938 MiB (92%)

AUDIO:
ID : 128 (0x80)
Format : AC-3
Format/Info : Audio Coding 3
Mode extension : CM (complete main)
Duration : 104 Minutes
Bit rate mode : Constant
Bit rate : 192 Kbps
Channel(s) : 2 channels
Channel positions : Front: L R
Sampling rate : 48.0 KHz
Stream size : 65.6 MiB (6%)
===============================================================================================
STREAM:

Video: MPEG2 Video 720x576 (16:9) [Video]
Audio: Dolby AC3 48000Hz stereo [AC3]
===============================================================================================
TOTAL FILE SIZE:

1.97 GB (2,117,896,855 bytes)
===============================================================================================
TORRENT CONTENTS:

10 Files in 2 Folders (VIDEO_TS & AUDIO_TS)
===============================================================================================
IMDB LINK:

http://www.imdb.com/title/tt0951335/
===============================================================================================
[ Another Free, high quality and ready too burn DVD movie from Hannspree. More will follow very soon. Please do be patient until then ]
===============================================================================================

Related torrents

Torrent NameAddedSizeSeedLeechHealth
10 months ago - in Other1.31 GB00
10 months ago - in Other2.06 GB00
10 months ago - in Movies1.36 GB00
11 months ago - in Movies4.45 GB00
1 Year+ - in Other697.91 MB248
1 Year+ - in Movies2.18 GB00

Comments (0 Comments)




Please login or create a FREE account to post comments

Latest Searches

| yk end | mozzy d | thomas b costain the three edwards the plantagenets 3 epub mobi | caught chubby | the black Beatles | The Flash Season 3 COMPLETE 480p HDTV x264 CompleteSE | ciara j i got you | mobb deep lil Kim | lisa smith fantasy | Elegant 5 Babes |