Quick Browse
Movies
TV shows
Music
Games
Applications
Anime
Other
Facebook
Advertising

Friends
Torrent Download
Movie4u
1337x.to
Torrent Downloads




The Nutcracker in 3D-2010-MP4 AAC-BRRip-CC


    Seeders : 1      Leechers : 6
Hash :4A50974C3A6B7657AEB2F652784744A1E595AE3E
Added :1 Year+ by Cavemania in Movies
Size :1.67 GB
Stream :WATCH ONLINE @ Movie4u


The Nutcracker in 3D-2010-MP4 AAC-BRRip-CC
Free and Fast Download with Usenet 300GB+ free







Trackers List

Tracker NameLast CheckStatusSeedersLeechers




Torrent File Content (12 files)


The Nutcracker in 3D-2010-MP4 AAC-BRRip-CC
    Screens-Info
          The Nutcracker in 3D-2010-MP4 AAC-BRRip-CC-Screens.jpg -
269.94 KB

          The Nutcracker in 3D-2010-MP4 AAC-BRRip-CC-Info.txt -
3.67 KB

     The Nutcracker in 3D-2010-MP4 AAC-BRRip-CC.mp4 -
1.65 GB

     The Nutcracker in 3D-2010-MP4 AAC-BRRip-CC Sample.mp4 -
24.63 MB

     The Nutcracker in 3D-2010-MP4 AAC-BRRip-CC English.srt -
86.17 KB

     The Nutcracker in 3D-2010-MP4 AAC-BRRip-CC Dutch.srt -
71.53 KB

     Torrent downloaded from extratorrent.com.txt -
83 bytes

     Torrent_downloaded_from_AhaShare.com.txt -
63 bytes

     Torrent Downloaded from Limetorrents.com.txt -
48 bytes

     Torrent downloaded from Demonoid.me.txt -
46 bytes

     Torrent Downloaded from SilverTorrents.me.txt -
41 bytes

     Torrent downloaded from torrentforce.org.txt -
40 bytes



Description



http://img339.imageshack.us/img339/7214/nutcracker3d2011.jpg


http://www.imdb.com/title/tt1041804/

Source: The.Nutcracker.in.3D.LIMITED.1080p.BluRay.x264-REFiNED

Subs: Dutch, English.

Sample and Screens included.

General
Complete name : The Nutcracker in 3D-2010-MP4 AAC-BRRip-CC\The Nutcracker in 3D-2010-MP4 AAC-BRRip-CC.mp4
Format : MPEG-4
Format profile : Base Media
Codec ID : isom
File size : 1.65 GiB
Duration : 1h 48mn
Overall bit rate : 2 186 Kbps
Encoded date : UTC 2011-10-31 05:56:01
Tagged date : UTC 2011-10-31 05:56:01
Writing application : Yamb 2.1.0.0

Video
ID : 1
Format : AVC
Format/Info : Advanced Video Codec
Format profile : [email protected]
Format settings, CABAC : Yes
Format settings, ReFrames : 1 frame
Codec ID : avc1
Codec ID/Info : Advanced Video Coding
Duration : 1h 48mn
Bit rate mode : Variable
Bit rate : 1 799 Kbps
Maximum bit rate : 8 727 Kbps
Width : 720 pixels
Height : 304 pixels
Display aspect ratio : 2.35:1
Frame rate mode : Variable
Frame rate : 23.976 fps
Minimum frame rate : 11.988 fps
Maximum frame rate : 23.988 fps
Resolution : 8 bits
Colorimetry : 4:2:0
Scan type : Progressive
Bits/(Pixel*Frame) : 0.343
Stream size : 1.36 GiB (82%)
Writing library : x264 core 65
Encoding settings : cabac=1 / ref=1 / deblock=1:0:0 / analyse=0x1:0x111 / me=hex / subme=6 / psy_rd=1.0:0.0 / mixed_ref=0 / me_range=16 / chroma_me=1 / trellis=0 / 8x8dct=0 / cqm=0 / deadzone=21,11 / chroma_qp_offset=-2 / threads=3 / nr=0 / decimate=1 / mbaff=0 / bframes=0 / keyint=240 / keyint_min=24 / scenecut=40(pre) / rc=2pass / bitrate=1799 / ratetol=1.0 / qcomp=0.60 / qpmin=10 / qpmax=51 / qpstep=4 / cplxblur=20.0 / qblur=0.5 / ip_ratio=1.40 / aq=1:1.00
Encoded date : UTC 2011-10-31 22:59:17
Tagged date : UTC 2011-10-31 05:57:42
Color primaries : BT.709-5, BT.1361, IEC 61966-2-4, SMPTE RP177
Transfer characteristics : BT.709-5, BT.1361
Matrix coefficients : BT.709-5, BT.1361, IEC 61966-2-4 709, SMPTE RP177

Audio
ID : 2
Format : AAC
Format/Info : Advanced Audio Codec
Format version : Version 4
Format profile : LC
Format settings, SBR : No
Codec ID : 40
Duration : 1h 48mn
Bit rate mode : Variable
Bit rate : 384 Kbps
Maximum bit rate : 600 Kbps
Channel(s) : 6 channels
Channel positions : Front: L C R, Rear: L R, LFE
Sampling rate : 48.0 KHz
Stream size : 297 MiB (18%)
Encoded date : UTC 2011-10-31 05:57:10
Tagged date : UTC 2011-10-31 05:57:42

Thanks to Simply ReleaseS Toppers for the Dutch subs. Awesom job peeps!

http://img528.imageshack.us/img528/8656/thenutcrackerin3d2010mp.jpg

Related torrents

Torrent NameAddedSizeSeedLeechHealth
Verified torrent
1 Year+ - in Movies2.23 GB12
1 Year+ - in Movies708 MB11
1 Year+ - in Movies732.06 MB018
1 Year+ - in Movies1.36 GB214
1 Year+ - in Movies1.36 GB00

Comments (0 Comments)




Please login or create a FREE account to post comments

Latest Searches

| conan helberg | taboo IV xxx | MomPOV Jillian | the never ending story 2 the next chapter divx | fucking hot girl | RAGGBONE | aint no quitter shania twain | All In with Chris Hayes 2016 12 | dd fox | classic porn split scenes |