Quick Browse
Movies
TV shows
Music
Games
Applications
Anime
Other
Facebook
Advertising

Friends
Torrent Download
Movie4u
1337x.to
Torrent Downloads




Verified torrent The One Warrior 2011 R5 DVDRip XviD AC3-26K


    Seeders : 0      Leechers : 0
Hash :6E8667B6B3EB3FE1C2F94764BF1941758496C8F6
Added :1 Year+ by memory100Verified torrent uploader in Movies
Size :1.45 GB
Stream :WATCH ONLINE @ Movie4u


The One Warrior 2011 R5 DVDRip XviD AC3-26K
Free and Fast Download with Usenet 300GB+ free







Trackers List

Tracker NameLast CheckStatusSeedersLeechers




Torrent File Content (7 files)


The One Warrior 2011 R5 DVDRip XviD AC3-26K
     HDSceneRG.txt -
115 bytes

     The One Warrior 2011 R5 DVDRip XviD AC3-26K.avi -
1.42 GB

     The One Warrior 2011 R5 DVDRip XviD AC3-26K.nfo -
3.09 KB

     Torrent downloaded from Demonoid.me.txt -
46 bytes

     att-networks.com.txt -
39 bytes

     sample.avi -
28.78 MB

     sceneunderground.org.txt -
77 bytes



Description



http://img406.imageshack.us/img406/7576/theonet.th.jpg

[code]
The One Warrior 2011 R5 DVDRip XviD AC3-26K

Imdb:
http://www.imdb.com/title/tt1623772/

Plot:
The One Warrior is a fantasy/action piece that is loosely based on video adventure games. In our story

Sources:
DVDR THNXS

Notes:
ENJOY!!!

Greetz:
Xtreme

Encode|FYA|ILLUMANTI|CM8|RX|VISION|HDSCENE|NIGHTMAREZ|xTriLL|DTRG|CRYS|REMIXHD|BIDA|RX|REFILL|INSPiRAL

|SIC|ZOMBIESZ|HOPE|Anonymous|GooN
To all the people who have helped me :P you know who you are

Anything to offer email us @: [email protected]

Video
ID : 0
Format : MPEG-4 Visual
Format profile : Advanced [email protected]
Format settings, BVOP : 2
Format settings, QPel : No
Format settings, GMC : No warppoints
Format settings, Matrix : Default (H.263)
Muxing mode : Packed bitstream
Codec ID : XVID
Codec ID/Hint : XviD
Duration : 1h 26mn
Bit rate : 2 097 Kbps
Width : 720 pixels
Height : 406 pixels
Display aspect ratio : 16:9
Frame rate : 25.000 fps
Color space : YUV
Chroma subsampling : 4:2:0
Bit depth : 8 bits
Scan type : Progressive
Compression mode : Lossy
Bits/(Pixel*Frame) : 0.287
Stream size : 1.27 GiB (89%)
Writing library : XviD 1.2.1 (UTC 2008-12-04)

Audio
ID : 1
Format : AC-3
Format/Info : Audio Coding 3
Mode extension : CM (complete main)
Codec ID : 2000
Duration : 1h 26mn
Bit rate mode : Constant
Bit rate : 256 Kbps
Channel(s) : 6 channels
Channel positions : Front: L C R, Side: L R, LFE
Sampling rate : 48.0 KHz
Bit depth : 16 bits
Compression mode : Lossy
Stream size : 158 MiB (11%)
Alignment : Aligned on interleaves
Interleave, duration : 8186 ms (204.65 video frames)

[/code]
Screens:
http://img36.imageshack.us/img36/2012/vlcsnap2012020513h05m08.th.png

http://img859.imageshack.us/img859/4003/vlcsnap2012020513h05m01.th.png

http://img39.imageshack.us/img39/7283/vlcsnap2012020513h04m23.th.png


http://img851.imageshack.us/img851/5503/26ks.jpg

Thank you smallz for banner!

Related torrents

Torrent NameAddedSizeSeedLeechHealth
1 Year+ - in Movies1.46 GB012
1 Year+ - in Movies1.46 GB78
1 Year+ - in Movies1.46 GB00
1 Year+ - in Movies1.4 GB5225
1 Year+ - in Movies722.06 MB331

Comments (0 Comments)




Please login or create a FREE account to post comments

Latest Searches

| as interracial | HD FantasyHD Emily | commando s pc game | the outernational | tugjobs lisa ann handjob from lisa ann mp4s | Jynx Maze I Became My Bosss Mistress | vikings s04e09 HEVC 1080p | shawn Mendes jrr | 7 ZIP 9 7 rar | Drunken Dragon 1985x264DVDripKungFuClassics |