Quick Browse
Movies
TV shows
Music
Games
Applications
Anime
Other
Facebook
Advertising

Friends
Torrent Download
Movie4u
1337x.to
Torrent Downloads




Verified torrent The Pack - Wolfpack Party


    Seeders : 1      Leechers : 0
Hash :AB1307458693A1DAAE2BAA796A60CA7D72465EEE
Added :1 Year+ by KingPinVerified torrent uploader in Music - Music Videos
Size :88.75 MB
Stream :WATCH ONLINE @ Movie4u


The Pack - Wolfpack Party
Free and Fast Download with Usenet 300GB+ free







Trackers List

Tracker NameLast CheckStatusSeedersLeechers




Torrent File Content (5 files)


The Pack - Wolfpack Party [KingPinVideos]
     The Pack - Wolfpack Party [KingPinVideos].mpg -
88.74 MB

     The Pack - Wolfpack Party [KingPinVideos].nfo -
2.03 KB

     The Pack - Wolfpack Party [KingPinVideos].txt -
1.63 KB

     Torrent downloaded from Demonoid.com.txt -
47 bytes

     Torrent Downloaded from Limetorrents.com.txt -
46 bytes



Description



http://a.imageshack.us/img227/1117/thepackwolf.png


http://a.imageshack.us/img818/4425/thepackwolf2.png


[code]General
Complete name : The Pack - Wolfpack Party [KingPinVideos].mpg
Format : MPEG-PS
File size : 88.7 MiB
Duration : 4mn 20s
Overall bit rate : 2 856 Kbps
Writing library : encoded by TMPGEnc 4.0 XPress Version. 4.7.4.299

Video
ID : 224 (0xE0)
Format : MPEG Video
Format version : Version 1
Format settings, BVOP : Yes
Format settings, Matrix : Default
Duration : 4mn 20s
Bit rate mode : Constant
Bit rate : 2 615 Kbps
Nominal bit rate : 2 700 Kbps
Width : 384 pixels
Height : 208 pixels
Display aspect ratio : 16:9
Frame rate : 29.970 fps
Resolution : 8 bits
Scan type : Progressive
Bits/(Pixel*Frame) : 1.092
Stream size : 81.2 MiB (92%)
Writing library : TMPGEnc XPress 4.7.4.299

Audio
ID : 192 (0xC0)
Format : MPEG Audio
Format version : Version 1
Format profile : Layer 2
Duration : 4mn 20s
Bit rate mode : Constant
Bit rate : 128 Kbps
Channel(s) : 2 channels
Sampling rate : 48.0 KHz
Stream size : 3.98 MiB (4%)[/code]

Related torrents

Torrent NameAddedSizeSeedLeechHealth
1 Year+ - in Music136.35 MB00
1 Year+ - in Other383.84 KB00
1 Year+ - in Other367.59 KB00
1 Year+ - in Other354.89 KB00
1 Year+ - in Other4.74 GB10

Comments (0 Comments)




Please login or create a FREE account to post comments

Latest Searches

| blacked new xxx november | cleverlys | lesbian 16 1080p | Marvel Guardians of the Galaxy 001 | the Marshall Mathers love 2 | 2014X FORCE Keygen | DeliaTS Purple Black solo | hank williams jr love song | mom Love of Pleasure 2 | recover my files v3 98 |