Quick Browse
TV shows

Latest Articles

Torrent Download
Free Movies
Torrent Downloads

The Polar Express (2004)(DUTCH) 2Lions-Team

    Seeders : 45      Leechers : 45

Hash :29B5D0363A81CA24FA36097636615A1C23F0CF17
Added :1 Year+ in Movies
Size :917.13 MB
Stream :Watch Online Full Movie @ Movie4u
Share :

The Polar Express (2004)(DUTCH) 2Lions-Team
Download Direct And Anonymously

Warning! Do not Download Torrents Without a VPN!
Your IP Address is .   And Location is
Your Internet Provider and Government can track your torrent Activity!  Hide your IP ADDRESS with a VPN!
We Strongly Recommend Using CyberGhost VPN to Anonymize your Torrenting.

Note :

Please Update (Trackers Info) Before Downloading Torrents to See Updated Seeders And Leechers for Batter Download Speed.

Trackers List

Tracker NameLast CheckStatusSeedersLeechers

Torrent File Content (5 files)

The Polar Express (2004) Dutch DIVX 2Lions-Team
    INFO 2Lions-Team
          logo 2Lions.jpg -
314.99 KB

          The Polar Express (2004) Dutch DIVX 2Lions-Team.txt -
3.36 KB

          Torrent_downloaded_from_Demonoid.com.txt -
634 bytes

          Torrents aan geboden door _2lions.ons-forum.nl.txt -
583 bytes

          Polar expres.avi -
916.82 MB


The Polar Express (2004)


Verenigde Staten
Animatie / Familie
100 minuten

geregisseerd door Robert Zemeckis
met de stemmen van Tom Hanks, Daryl Sabara en Michael Jeter

Een jongen die twijfelt aan het bestaan van de Kerstman, komt in een fantasiereis naar de Noordpool terecht op een magische trein. Daar zal hij de Kerstman persoonlijk mogen ontmoeten, samen met enkele andere kinderen.


This is the story of a young hero boy on Christmas Eve who boards on a powerful magical train that's headed to the North Pole and Santa Claus's home. What unfolds is an an adventure which follows a doubting boy, who takes an extraordinary train ride to the North Pole; during this ride, he embarks on a journey of self-discovery which shows him that the wonder of life never fades for those who believe.

audio : Dutch
bron : dvd
Format : AVI
Format/Info : Audio Video Interleave
File size : 917 MiB
Duration : 1h 35mn
Overall bit rate : 1 338 Kbps
Writing application : Lavf51.12.1

ID : 0
Format : MPEG-4 Visual
Format profile : [email protected]
Format settings, BVOP : No
Format settings, QPel : No
Format settings, GMC : No warppoints
Format settings, Matrix : Default (H.263)
Codec ID : DX50
Codec ID/Hint : DivX 5
Duration : 1h 35mn
Bit rate : 1 198 Kbps
Width : 720 pixels
Height : 576 pixels
Display aspect ratio : 5/4
Frame rate : 25.000 fps
Standard : PAL
Resolution : 24 bits
Colorimetry : 4:2:0
Scan type : Progressive
Bits/(Pixel*Frame) : 0.116
Stream size : 820 MiB (89%)
Writing library : Lavc51.40.4

ID : 1
Format : MPEG Audio
Format version : Version 1
Format profile : Layer 3
Codec ID : 55
Codec ID/Hint : MP3
Duration : 1h 35mn
Bit rate mode : Constant
Bit rate : 128 Kbps
Channel(s) : 2 channels
Sampling rate : 48.0 KHz
Resolution : 16 bits
Stream size : 87.7 MiB (10%)
Alignment : Aligned on interleaves
Interleave, duration : 24 ms (0.60 video frame)
Interleave, preload duration : 24 ms
Writing library : LAME3.97 [/code]

Weblink : http://www.moviemeter.nl/film/14775
Weblink : http://www.imdb.com/title/tt0338348

Brought to you by

2Lions Team


2Lions-Team for all your Dutch MOVIES and more


DON T HIT AND RUN Niet gelijk afhaken als de film binnen is blijf seeden.

Related torrents

Torrent NameAddedSizeSeedLeechHealth
1 Year+ - in Movies4.36 GB02
6 months ago - in Other2.02 GB11
7 months ago - in Other1.45 GB00
7 months ago - in Other1.21 GB00
7 months ago - in Other1.91 GB00

Note :

Feel free to post any comments about this torrent, including links to Subtitle, samples, screenshots, or any other relevant information. Please Dont Download anything from Comments, And Dont Post Links to Streaming Sites like Fmovies, Xmovies8, 123Movies, GoMovies, CMovieshd, Solarmovie, Watchfree, Putlockers, GoStream, m4ufree etc.

Comments (0 Comments)

Please login or create a FREE account to post comments

Latest Searches

| Three Times a Lady Commodores | War for the Crown | Ultimate Desi Indian Leaked Homemade Scandal of the | ClubSandy Jennifer White | You Me Her | nurses love | krypton s01e01 ettv | charlee chase 480p | A Collection of Pussies Spread Wide Open | 9 1 1 S01E09 SVA |