Quick Browse
Movies
TV shows
Music
Games
Applications
Anime
Other
Facebook
Advertising

Friends
Torrent Download
Movie4u
1337x.to
Torrent Downloads




The Polar Express (2004)(DUTCH) 2Lions-Team


    Seeders : 45      Leechers : 45
Hash :29B5D0363A81CA24FA36097636615A1C23F0CF17
Added :1 Year+ in Movies
Size :917.13 MB
Stream :WATCH ONLINE @ Movie4u


The Polar Express (2004)(DUTCH) 2Lions-Team
Free and Fast Download with Usenet 300GB+ free







Trackers List

Tracker NameLast CheckStatusSeedersLeechers




Torrent File Content (5 files)


The Polar Express (2004) Dutch DIVX 2Lions-Team
    INFO 2Lions-Team
          logo 2Lions.jpg -
314.99 KB

          The Polar Express (2004) Dutch DIVX 2Lions-Team.txt -
3.36 KB

          Torrent_downloaded_from_Demonoid.com.txt -
634 bytes

          Torrents aan geboden door _2lions.ons-forum.nl.txt -
583 bytes

    MOVIE
          Polar expres.avi -
916.82 MB



Description



The Polar Express (2004)

http://img156.imageshack.us/img156/5739/thepolarexpress.jpg



Verenigde Staten
Animatie / Familie
100 minuten

geregisseerd door Robert Zemeckis
met de stemmen van Tom Hanks, Daryl Sabara en Michael Jeter

Een jongen die twijfelt aan het bestaan van de Kerstman, komt in een fantasiereis naar de Noordpool terecht op een magische trein. Daar zal hij de Kerstman persoonlijk mogen ontmoeten, samen met enkele andere kinderen.


English

This is the story of a young hero boy on Christmas Eve who boards on a powerful magical train that's headed to the North Pole and Santa Claus's home. What unfolds is an an adventure which follows a doubting boy, who takes an extraordinary train ride to the North Pole; during this ride, he embarks on a journey of self-discovery which shows him that the wonder of life never fades for those who believe.


audio : Dutch
bron : dvd
[code]
Format : AVI
Format/Info : Audio Video Interleave
File size : 917 MiB
Duration : 1h 35mn
Overall bit rate : 1 338 Kbps
Writing application : Lavf51.12.1

Video
ID : 0
Format : MPEG-4 Visual
Format profile : [email protected]
Format settings, BVOP : No
Format settings, QPel : No
Format settings, GMC : No warppoints
Format settings, Matrix : Default (H.263)
Codec ID : DX50
Codec ID/Hint : DivX 5
Duration : 1h 35mn
Bit rate : 1 198 Kbps
Width : 720 pixels
Height : 576 pixels
Display aspect ratio : 5/4
Frame rate : 25.000 fps
Standard : PAL
Resolution : 24 bits
Colorimetry : 4:2:0
Scan type : Progressive
Bits/(Pixel*Frame) : 0.116
Stream size : 820 MiB (89%)
Writing library : Lavc51.40.4

Audio
ID : 1
Format : MPEG Audio
Format version : Version 1
Format profile : Layer 3
Codec ID : 55
Codec ID/Hint : MP3
Duration : 1h 35mn
Bit rate mode : Constant
Bit rate : 128 Kbps
Channel(s) : 2 channels
Sampling rate : 48.0 KHz
Resolution : 16 bits
Stream size : 87.7 MiB (10%)
Alignment : Aligned on interleaves
Interleave, duration : 24 ms (0.60 video frame)
Interleave, preload duration : 24 ms
Writing library : LAME3.97 [/code]


Weblink : http://www.moviemeter.nl/film/14775
Weblink : http://www.imdb.com/title/tt0338348

Brought to you by
Pioen
http://i226.photobucket.com/albums/dd118/FloraKing/Avator/bloemenmeisje.gif

2Lions Team



http://i845.photobucket.com/albums/ab16/hortencia9/_96637_four_weddings_and_a_funeral_.jpg



2Lions-Team for all your Dutch MOVIES and more

*****************************************

DON T HIT AND RUN Niet gelijk afhaken als de film binnen is blijf seeden.

Related torrents

Torrent NameAddedSizeSeedLeechHealth
1 Year+ - in Movies4.36 GB2364
5 months ago - in Other2.22 GB00
Verified torrent
11 months ago - in Movies3.64 GB126326
11 months ago - in Movies1.36 GB00
11 months ago - in Other809.87 MB419

Comments (0 Comments)




Please login or create a FREE account to post comments

Latest Searches

| Culioneros Lylith Lavey Gets Some Hard Anal Sex | ladies edition h t | forced to f | nova s01e11 | uchuu kyoudai 35 | Titterific Lylith Lavey | MissAlice 94 MissAlice 18 MyFreeCams | paige turnah girls | Feminine daz | The Great Indoors S01E07 720p |