Quick Browse
Movies
TV shows
Music
Games
Applications
Anime
Other

Donate and Support

Friends
Torrents.me
Torrent Download
Free Movies
1337x
RARBG
Torrent Downloads

Verified torrent The Pretty Reckless - Make Me Wanna Die [KingPinVideos]


    Seeders : 21      Leechers : 6
Hash :ED40B79C2C9D6F4A5C884FF10240C041116E8023
Added :1 Year+ by KingPinVerified torrent uploader in Music - Music Videos
Size :81.17 MB
Stream :Watch Full Movies Online @ Movie4u
Share :









Warning! Do not Download Torrents Without a VPN!
Your IP Address is .   And Location is
Your Internet Provider and Government can track your torrent Activity!  Hide your IP ADDRESS with a VPN!
We Strongly Recommend Using SpyOFF Torrent VPN to Anonymize your Torrenting. It's FREE For 15 Days!

Note :

Please Update (Trackers Info) Before Downloading Torrents to See Updated Seeders And Leechers for Batter Download Speed.

Trackers List

Tracker NameLast CheckStatusSeedersLeechers




Torrent File Content (5 files)


The Pretty Reckless - Make Me Wanna Die [KingPinVideos]
     The Pretty Reckless - Make Me Wanna Die [KingPinVideos].mpg -
81.16 MB

     The Pretty Reckless - Make Me Wanna Die [KingPinVideos].nfo -
1.94 KB

     The Pretty Reckless - Make Me Wanna Die [KingPinVideos].txt -
1.64 KB

     Torrent downloaded from Demonoid.com.txt -
47 bytes

     Torrent Downloaded from Limetorrents.com.txt -
46 bytes



Description



http://img843.imageshack.us/img843/9642/theprittydie.png


http://img208.imageshack.us/img208/4153/theprittydie2.png


[code]General
Complete name : The Pretty Reckless - Make Me Wanna Die [KingPinVideos].mpg
Format : MPEG-PS
File size : 81.2 MiB
Duration : 3mn 58s
Overall bit rate : 2 856 Kbps
Writing library : encoded by TMPGEnc 4.0 XPress Version. 4.7.4.299

Video
ID : 224 (0xE0)
Format : MPEG Video
Format version : Version 1
Format settings, BVOP : Yes
Format settings, Matrix : Default
Duration : 3mn 58s
Bit rate mode : Constant
Bit rate : 2 615 Kbps
Nominal bit rate : 2 700 Kbps
Width : 384 pixels
Height : 208 pixels
Display aspect ratio : 16:9
Frame rate : 29.970 fps
Resolution : 8 bits
Scan type : Progressive
Bits/(Pixel*Frame) : 1.092
Stream size : 74.3 MiB (92%)
Writing library : TMPGEnc XPress 4.7.4.299

Audio
ID : 192 (0xC0)
Format : MPEG Audio
Format version : Version 1
Format profile : Layer 2
Duration : 3mn 58s
Bit rate mode : Constant
Bit rate : 128 Kbps
Channel(s) : 2 channels
Sampling rate : 48.0 KHz
Stream size : 3.64 MiB (4%)

[/code]

Related torrents

Torrent NameAddedSizeSeedLeechHealth
1 Year+ - in Music40.96 MB00
1 Year+ - in Music179.23 MB311
1 Year+ - in Music97.22 MB122
1 Year+ - in Music9.77 MB00
1 Year+ - in Other197.56 MB01

Comments (0 Comments)




Please login or create a FREE account to post comments

Latest Searches

| ellen anal | death l a | cieli ita | Saudi Aramco Standard | Procreate Sketch paint create 2 2Cracked iOS by AppCake | india kacy | blacked out riley reid | ReviverSoft PC Reviver 3 0 0 40 x86 x64 Crack | Spizoo 16 05 15 April Brookes We All Fuck XXX 1080p MP4 KTR | deepthroatsirens esperanza del horno xxx 1080p mp4 ktr rarbg |