Quick Browse
Movies
TV shows
Music
Games
Applications
Anime
Other
Facebook
Advertising

Friends
Torrent Download
Movie4u
1337x.to
Torrent Downloads




The Protector - [Tom yum goong] - Thailand Movie - 2005 - TVRip - WS - XViD-Greekadiko.biz Release - English Subtitles


    Seeders : 0      Leechers : 0

Trackers List

Tracker NameLast CheckStatusSeedersLeechers




Torrent File Content (14 files)


The Protector
     The Protector_NEW.avi -
709.66 MB

     The Protector_NEW_4.jpg -
38.93 KB

     The Protector_NEW_6.jpg -
38.59 KB

     The Protector_NEW_3.jpg -
34 KB

     The Protector_NEW_2.jpg -
33.85 KB

     The Protector_NEW_7.jpg -
30.79 KB

     The Protector_NEW_5.jpg -
28.02 KB

     The Protector_NEW_8.jpg -
27.44 KB

     The Protector_NEW_10.jpg -
27.4 KB

     The Protector_NEW.jpg -
24.54 KB

     The Protector_NEW_1.jpg -
24.32 KB

     The Protector_NEW_11.jpg -
19.58 KB

     The Protector_NEW_9.jpg -
18.85 KB

     The Protector_NEW_12.jpg -
18.49 KB



Description



General
Complete name : The Protector_NEW.avi
Format : AVI
Format/Info : Audio Video Interleave
File size : 710 MiB
Duration : 1h 20mn
Overall bit rate : 1 227 Kbps
Writing application : VirtualDubMod 1.5.4.1 (build 2178/release)
Writing library : VirtualDubMod build 2178/release

Video
ID : 0
Format : MPEG-4 Visual
Format profile : Streaming [email protected]
Format settings, BVOP : Yes
Format settings, QPel : No
Format settings, GMC : No warppoints
Format settings, Matrix : Default (H.263)
Muxing mode : Packed bitstream
Codec ID : XVID
Codec ID/Hint : XviD
Duration : 1h 20mn
Bit rate : 1 100 Kbps
Width : 720 pixels
Height : 464 pixels
Display aspect ratio : 1.552
Frame rate : 29.970 fps
Resolution : 24 bits
Colorimetry : 4:2:0
Scan type : Progressive
Bits/(Pixel*Frame) : 0.110
Stream size : 637 MiB (90%)
Writing library : XviD 1.2.1 (UTC 2008-12-04)

Audio
ID : 1
Format : MPEG Audio
Format version : Version 1
Format profile : Layer 3
Codec ID : 55
Codec ID/Hint : MP3
Duration : 1h 20mn
Bit rate mode : Variable
Bit rate : 112 Kbps
Nominal bit rate : 128 Kbps
Channel(s) : 2 channels
Sampling rate : 48.0 KHz
Resolution : 16 bits
Stream size : 65.0 MiB (9%)
Alignment : Aligned on interleaves
Interleave, duration : 24 ms (0.72 video frame)
Interleave, preload duration : 454 ms
Writing library : LAME3.98r
Encoding settings : -m j -V 4 -q 2 -lowpass 17 --abr 128







Screenshots:

http://i46.tinypic.com/2lt136b.jpg


http://i46.tinypic.com/33cp5vq.jpg


http://i48.tinypic.com/jtwg89.jpg


http://i50.tinypic.com/1zeiexi.jpg


http://i47.tinypic.com/28v7kt1.jpg

Related torrents

Torrent NameAddedSizeSeedLeechHealth
1 Year+ - in Movies676.86 MB10
1 Year+ - in Movies707.3 MB00
1 Year+ - in Movies739.46 MB11
1 Year+ - in Movies657.64 MB10
1 Year+ - in Movies699.68 MB21

Comments (0 Comments)




Please login or create a FREE account to post comments

Latest Searches

| drunk hooker anal | bahubali bluray 720p | incest russian mother | december 2016 top | queen queen full album | 2 Young Sluts | victorias secret fashion show | the boys are back in town two babes | Crush 2013 BRRip 720p x264 AAC PRiSTiNE P2PDL | NASS MOTHER |