Quick Browse
Movies
TV shows
Music
Games
Applications
Anime
Other
Facebook
Advertising

Friends
Torrent Download
Movie4u
1337x.to
Torrent Downloads




Verified torrent The Rebound [DVD] [Eng] [AC3] [Hannspree]


    Seeders : 1      Leechers : 86
Hash :9E78698B1FFA561CC24C843B26F5B101479AA092
Added :1 Year+ by HannspreeVerified torrent uploader in Movies
Size :1.7 GB
Stream :WATCH ONLINE @ Movie4u


The Rebound [DVD] [Eng] [AC3] [Hannspree]
Free and Fast Download with Usenet 300GB+ free







Trackers List

Tracker NameLast CheckStatusSeedersLeechers




Torrent File Content (18 files)


The Rebound
    The Rebound [DVD - Covers]
          The Rebound - Covers/The Rebound - DVD Cover.jpg -
382.34 KB

          The Rebound - Covers/The Rebound - DVD Disc.jpg -
193.88 KB

          The Rebound - Covers/The Rebound.jpg -
154.33 KB

          The Rebound - DVD/VIDEO_TS/VIDEO_TS.BUP -
12 KB

          The Rebound - DVD/VIDEO_TS/VIDEO_TS.IFO -
12 KB

          The Rebound - DVD/VIDEO_TS/VIDEO_TS.VOB -
58 KB

          The Rebound - DVD/VIDEO_TS/VTS_01_0.BUP -
66 KB

          The Rebound - DVD/VIDEO_TS/VTS_01_0.IFO -
66 KB

          The Rebound - DVD/VIDEO_TS/VTS_01_0.VOB -
58 KB

          The Rebound - DVD/VIDEO_TS/VTS_01_1.VOB -
1023.97 MB

          The Rebound - DVD/VIDEO_TS/VTS_01_2.VOB -
714.74 MB

     The Rebound.NFO -
3.85 KB

     Torrent downloaded from Ahashare.com.txt -
47 bytes

     Torrent downloaded from Demonoid.com.txt -
47 bytes

     Torrent downloaded from Genesis-sp.org.txt -
49 bytes

     Torrent downloaded from H33t.org.txt -
43 bytes

     Torrent downloaded from Limetorrents.com.txt -
51 bytes

     Torrent downloaded from Torrentsnet.com.txt -
48 bytes



Description



=====================================================================================
[ This DVD was uploaded for your enjoyment, and to seed. More quality movies will follow. Please do be patient ]
=====================================================================================
MOVIE TITLE: The Rebound
LANGUAGE: English
MOVIE SUBS: No
BURN TESTED: Yes
FORMAT: Pal
GENRE: Comedy | Romance
RUNTIME: 95 Minutes
YEAR: 2010
IMDB LINK: http://www.imdb.com/title/tt1205535/
FILE SIZE: 1.69 GB
=====================================================================================
MOVIE DESC:

Sandy, upon discovering her husband's infidelity while watching her son's birthday video, leaves the suburbs and moves into the city. She gets an apartment that's above a coffee house where she befriends one of the workers, Aram, a guy whose wife only married him so she could get a green card. Aram's family thinks he's wasting his life and education by working in the coffee house. Soon after moving into the apartment, Sandy hires Aram to be her nanny while she takes on work for the first time since her children where born. It isn't long when Aram and Sandy find they get along wonderfully and start to date. But the question is... is their relationship real or is it, in fact, just a rebound for both of them.
=====================================================================================
MOVIE SPECS:

GENERAL:
Complete name : The Rebound
Format : MPEG-PS
File size : 1.69 GB
Duration : 95 Minutes
Overall bit rate : 2 586 Kbps

VIDEO:
ID : 224 (0xE0)
Format : MPEG Video
Format version : Version 2
Format profile : [email protected]
Format settings, BVOP : Yes
Format settings, Matrix : Default
Duration : 95 Minutes
Bit rate mode : Variable
Bit rate : 2 343 Kbps
Nominal bit rate : 9 608 Kbps
Width : 720 pixels
Height : 576 pixels
Display aspect ratio : 16:9
Frame rate : 25.000 fps
Standard : PAL
Color space : YUV
Chroma subsampling : 4:2:0
Bit depth : 8 bits
Scan type : Progressive
Bits/(Pixel*Frame) : 0.226
Stream size : 928 MiB (91%)

AUDIO:
ID : 128 (0x80)
Format : AC-3
Format/Info : Audio Coding 3
Mode extension : CM (complete main)
Duration : 95 Minutes
Bit rate mode : Constant
Bit rate : 192 Kbps
Channel(s) : 2 channels
Channel positions : Front: L R
Sampling rate : 48.0 KHz
Stream size : 76.0 MiB (7%)
=====================================================================================
TRACKERS:
http://inferno.demonoid.com:3400/announce
http://www.genesis-sp.org:2710/announce
http://tracker.torrentbox.com:2710/announce
http://denis.stalker.h3q.com:6969/announce
http://nemesis.1337x.org/announce
http://exodus.1337x.org/announce
http://tracker.publicbt.com/announce
http://10.rarbg.com/announce
http://tracker.ilibr.org:6969/announce
http://rt.beeretracker.net/announce.php
=====================================================================================
FOOT NOTE:
If you are happy with this download, it would be nice to hear your views or comments that you might have. Enjoy
=====================================================================================

Related torrents

Torrent NameAddedSizeSeedLeechHealth
Verified torrent
1 Year+ - in Movies1.53 GB62
Verified torrent
1 Year+ - in Movies1.28 GB23
Verified torrent
1 Year+ - in Movies1.34 GB56
Verified torrent
1 Year+ - in Movies1.55 GB229
1 Good
Verified torrent
1 Year+ - in Movies1.63 GB239

Comments (0 Comments)




Please login or create a FREE account to post comments

Latest Searches

| the sexual desires leah gotti | selena perfect view | Vaseline i cube | saki sato | el chavo del 8 mkv | tasha black | NTSC | ricky the best | cortez the killer neil young | Madres R Hijas |