Quick Browse
Movies
TV shows
Music
Games
Applications
Anime
Other
Facebook
Advertising

Friends
Torrent Download
Movie4u
1337x.to
Torrent Downloads




Verified torrent The Reef 2010 R5 XVID AC3 HQ Hive-CM8


    Seeders : 107      Leechers : 166
Hash :7A4A7C1D9ECF9F6F2625E986AFAF3F6F83CF6A08
Added :1 Year+ by memory100Verified torrent uploader in Movies
Size :1.52 GB
Stream :WATCH ONLINE @ Movie4u


The Reef 2010 R5 XVID AC3 HQ Hive-CM8
Free and Fast Download with Usenet 300GB+ free







Trackers List

Tracker NameLast CheckStatusSeedersLeechers




Torrent File Content (6 files)


The.Reef.2010.R5.XVID.AC3.HQ.Hive-CM8
     NW RG.nfo -
12.96 KB

     NW RG.txt -
126 bytes

     Pleas read!!!!.txt -
126 bytes

     The.Reef.2010.R5.XVID.AC3.HQ.Hive-CM8.avi -
1.52 GB

     The.Reef.2010.R5.XVID.AC3.HQ.Hive-CM8.nfo -
4.16 KB

     sample.avi -
6.69 MB



Description



http://img264.imageshack.us/img264/1245/reef1.jpg

[code]
Thx Hive

CM8 Doing It Right The First Time :D


Source: Russian R5 DVD9
Otkrytoe.more.Novye.zhertvy.2010.DVD-9
had English 5.1 Audio on it

Video: 720x400 @bitrate 2200
Audio: English AC3 5.1 @256
(yes both audiotracks had bitrate 256)
Sample: yes included

Encode:
added sharpness,chroma,denoise


http://www.imdb.com/title/tt1320291/

General
Complete name : The.Reef.2010.R5.XVID.AC3.HQ.Hive-CM8.avi
Format : AVI
Format/Info : Audio Video Interleave
File size : 1.52 GiB
Duration : 1h 28mn
Overall bit rate : 2 465 Kbps
Writing application : Nandub v1.0rc2
Writing library : Nandub build 1853/release

Video
ID : 0
Format : MPEG-4 Visual
Format profile : Advanced [email protected]
Format settings, BVOP : Yes
Format settings, QPel : Yes
Format settings, GMC : No warppoints
Format settings, Matrix : Default (H.263)
Muxing mode : Packed bitstream
Codec ID : XVID
Codec ID/Hint : XviD
Duration : 1h 28mn
Bit rate : 2 199 Kbps
Width : 720 pixels
Height : 400 pixels
Display aspect ratio : 16:9
Frame rate : 25.000 fps
Color space : YUV
Chroma subsampling : 4:2:0
Bit depth : 8 bits
Scan type : Progressive
Bits/(Pixel*Frame) : 0.305
Stream size : 1.35 GiB (89%)
Writing library : XviD 1.2.1 (UTC 2008-12-04)

Audio
ID : 1
Format : AC-3
Format/Info : Audio Coding 3
Mode extension : CM (complete main)
Codec ID : 2000
Duration : 1h 28mn
Bit rate mode : Constant
Bit rate : 256 Kbps
Channel(s) : 6 channels
Channel positions : Front: L C R, Side: L R, LFE
Sampling rate : 48.0 KHz
Bit depth : 16 bits
Stream size : 161 MiB (10%)
Alignment : Split accross interleaves
Interleave, duration : 40 ms (1.00 video frame)
Interleave, preload duration : 500 ms

Cast:
Adrienne Pickering ... Suzie
Zoe Naylor ... Kate
Gyton Grantley ... Matt
Damian Walshe-Howling ... Luke
Kieran Darcy-Smith ... Warren

Plot:
Luke welcomes his friend Matt and his girlfriend Suzie that come
from London and Matt's sister and Luke's former girlfriend Kate
that comes from Sydney to sail with him and the sailor Warren
in a sailboat. However, the vessel hits an underwater rock and
capsizes with an opening on her bottom. Luke advises that they
should swim in the north direction to reach the Turtle Island,
in Queensland, Australia, while they have strength since there
is a current moving the boat in the opposite direction of land
but Warren prefers to stay on the hull waiting for help since
there are sharks in the water. The quartet swims, but they are hunted by a great white shark.
[/code]
Screens:
http://img209.imageshack.us/img209/3166/tr3p.png

http://img822.imageshack.us/img822/5999/tr4k.png

Related torrents

Torrent NameAddedSizeSeedLeechHealth
1 Year+ - in Movies1.52 GB00
1 Year+ - in Movies1.52 GB245
1 Year+ - in Movies1.52 GB1814
Verified torrent
1 Year+ - in Movies1.18 GB208
1 Year+ - in Movies1.18 GB2514

Comments (0 Comments)




Please login or create a FREE account to post comments

Latest Searches

| Laf suicidegirls | Kiley Jay Man Milk Cookies And Tiny Pussies | wii pal dragon quest | carols symphony | Hot teen Caterine Love gets destroyed by two big blacks cocks IV022 | nickelback be somebody | living in paradise | nubiles porn kayne | music lounge 2014 | I Am Que Que |