Quick Browse
Movies
TV shows
Music
Games
Applications
Anime
Other

Donate and Support

Friends
Torrents.me
Torrent Download
Free Movies
1337x
RARBG
Torrent Downloads

Verified torrent The Simply Raw by Dr. Joel Fuhrman@Mastitorrents


    Seeders : 0      Leechers : 1
Hash :187502930FCED37C4516280FD4F05940380EC2AE
Added :1 Year+ by mastitorrentsVerified torrent uploader in TV shows
Size :208.41 MB
Stream :Watch Full Movies Online @ Movie4u
Share :


The Simply Raw by Dr. Joel Fuhrman@Mastitorrents
Anonymous and Direct Download 300GB+ free







Warning! Do not Download Torrents Without a VPN!
Your IP Address is .   And Location is
Your Internet Provider and Government can track your torrent Activity!  Hide your IP ADDRESS with a VPN!
We Strongly Recommend Using SpyOFF Torrent VPN to Anonymize your Torrenting. It's FREE For 15 Days!

Note :

Please Update (Trackers Info) Before Downloading Torrents to See Updated Seeders And Leechers for Batter Download Speed.

Trackers List

Tracker NameLast CheckStatusSeedersLeechers




Torrent File Content (1 file)


     The Simply Raw by Dr. Joel Fuhrman.avi -
208.41 MB



Description



[color=red][font=Georgia]Mediainfo:
Video
Format : xvid
Duration : 20mn 45s
Bit rate : 1 263 Kbps
Width : 1 920 pixels
Height : 1 080 pixels
Display aspect ratio : 16:9
Frame rate : 29.970 fps
Bits/(Pixel*Frame) : 0.020
Stream size : 187 MiB (90%)
Audio
Codec ID/Hint : MP3
Bit rate mode : Constant
Bit rate : 128 Kbps
Channel(s) : 2 channels
Sampling rate : 44.1 KHz
Stream size : 19.0 MiB (9%)Mediainfo:
Video
Format : xvid
Duration : 20mn 45s
Bit rate : 1 263 Kbps
Width : 1 920 pixels
Height : 1 080 pixels
Display aspect ratio : 16:9
Frame rate : 29.970 fps
Bits/(Pixel*Frame) : 0.020
Stream size : 187 MiB (90%)
Audio
Codec ID/Hint : MP3
Bit rate mode : Constant
Bit rate : 128 Kbps
Channel(s) : 2 channels
Sampling rate : 44.1 KHz
Stream size : 19.0 MiB (9%)

No other living being (other than humans) eats processed food by choice e.g. A monkey eats fruits, a lion raw meat, etc. Only humans cook food to eat it.

Dr. Joel, who trains athletes, says eat more raw food for good health e.g.
- No coke or pepsi.
- No Burger King or Mac Donalads
- Suck sugarcane if you want, but don't eat sugar granules.
- Eat raw fruits and vegetables i.e. without cooking; only washing and cutting.
[/font][/color]

http://www.desiupload.com/out.php/i554024_vlcsnap2010110512h12m40s81.png

http://www.desiupload.com/out.php/i554025_vlcsnap2010110512h12m46s137.png

http://www.desiupload.com/out.php/i554026_vlcsnap2010110512h12m51s187.png

Related torrents

Torrent NameAddedSizeSeedLeechHealth
1 Year+ - in Other2.48 MB54
Last Month - in Other515.58 MB00
1 Year+ - in Movies1.8 GB00
1 Year+ - in Other90.62 MB00
1 Year+ - in Applications30.96 MB00

Comments (0 Comments)




Please login or create a FREE account to post comments

Latest Searches

| alex dynamix | alestorm no | dharma ocean | MURDER GAMES James Patterson epub | Busty Mila Milan takes on 4 cock and does double | marco polo de | m jette | the Defenders episode 2 | White Deer Plain 56 | kesha the dap kings horns |