Quick Browse
Movies
TV shows
Music
Games
Applications
Anime
Other
Facebook
Advertising

Friends
Torrent Download
Movie4u
1337x.to
Torrent Downloads




The Simpsons Movie [BDrip 720p - H264 - Ita DTS Aac Eng Ac3 - MultiSub] TNT VILLAGE


    Seeders : 4      Leechers : 40

Trackers List

Tracker NameLast CheckStatusSeedersLeechers




Torrent File Content (1 file)


     I.Simpson.-.Il.Film.(Silverman,2007).BDRip.720p.DTS-AAC.ITA.AC3.ENG.Subs.Chapters.-.kaos.mkv -
2.18 GB



Description



[color=blue] The Simpsons Movie[/color]


http://1.bp.blogspot.com/_zpweLx6_Z3U/TT8PD3yaRSI/AAAAAAAAAY0/S2ZAZq5OYFg/s1600/the-simpsons-movie.jpg


[color=green].: Technical Info :.[/color]

[color=black]Title:The Simpsons Movie
Country:USA
Year:2007
Genre:Animazione/Commedia/Satira
Director:David Silverman
Production:Matt Groening, James L. Brooks, Al Jean, Mike Scully, Richard Sakai
Distribution:20th Century Fox
Cast:
Dan Castellaneta: Homer Simpson
Julie Kavner: Marge Simpson
Nancy Cartwright: Bart Simpson
Yeardley Smith: Lisa Simpson
Hank Azaria: Apu Nahasapeemapetilon, Boe Szyslak, Clancy Winchester, Capitano McCallister, Lou, Carl Carlson, Disco Stu, Dr. Nick Riviera, Serpente, Cletus, Luigi
Harry Shearer: Mr. Burns, Smithers, Direttore Skinner, Ned Flanders, Dr. Hibbert, Presidente Schwarzenegger
Tress MacNeille: Agnes Skinner, Brandine
Pamela Hayden: Milhouse Van Houten, Jimbo Jones, Rod Flanders
Albert Brooks: Russ Cargil
Tom Hanks: sé stesso
Green Day: sé stessi
[/color]

[color=green].:Plot:.[/color]

[align=left][color=black]It features Albert Brooks as Russ Cargill, the evil head of the Environmental Protection Agency who intends to destroy Springfield after Homer pollutes the lake. As the townspeople exile him and eventually his family abandon him, Homer works to redeem his folly by stopping Cargill's scheme.[/color][/align]


[align=center][color=green].: Technical Report :.[/color][/align]

[color=green].:General:.[/color]

[color=black]Unique ID : 230337068336709627580795810113358193314 (0xAD494E43BEAC10AD820CA48ED0D0E2A2)
Complete name : C:\Users\Pizza\Desktop\I.Simpson.-.Il.Film.(Silverman,2007).BDRip.720p.DTS-AAC.ITA.AC3.ENG.Subs.Chapters.-.kaos.mkv
Format : Matroska
File size : 2.18 GiB
Duration : 1h 26mn
Overall bit rate : 3 602 Kbps
Movie name : I Simpson - Il Film (Silverman, 2007)
Encoded date : UTC 2010-10-23 07:11:13
Writing application : mkvmerge v3.4.0 ('Rapunzel') built on May 15 2010 09:38:20
Writing library : libebml v0.8.0 + libmatroska v0.9.0
[/color]

[color=green]Video[/color]
[color=black]ID : 1
Format : AVC
Format/Info : Advanced Video Codec
Format profile : [email protected]
Format settings, CABAC : Yes
Format settings, ReFrames : 4 frames
Codec ID : V_MPEG4/ISO/AVC
Duration : 1h 26mn
Nominal bit rate : 2 275 Kbps
Width : 1 280 pixels
Height : 532 pixels
Display aspect ratio : 2.40:1
Frame rate : 23.976 fps
Color space : YUV
Chroma subsampling : 4:2:0
Bit depth : 8 bits
Scan type : Progressive
Bits/(Pixel*Frame) : 0.139
Title : video
Writing library : x264 core 107 r1745 4785e8e
[/color]


[color=green]Audio #1[/color]
[color=black]ID : 2
Format : DTS
Format/Info : Digital Theater Systems
Codec ID : A_DTS
Duration : 1h 26mn
Bit rate mode : Constant
Bit rate : 755 Kbps
Channel(s) : 6 channels
Channel positions : Front: L C R, Side: L R, LFE
Sampling rate : 48.0 KHz
Bit depth : 24 bits
Compression mode : Lossy
Stream size : 468 MiB (21%)
Title : DTS ITA 5.1
Language : Italian
[/color]

[color=green]Audio #2[/color]
[color=black]ID : 3
Format : AC-3
Format/Info : Audio Coding 3
Mode extension : CM (complete main)
Codec ID : A_AC3
Duration : 1h 26mn
Bit rate mode : Constant
Bit rate : 448 Kbps
Channel(s) : 6 channels
Channel positions : Front: L C R, Side: L R, LFE
Sampling rate : 48.0 KHz
Bit depth : 16 bits
Compression mode : Lossy
Stream size : 278 MiB (12%)
Title : AC3 ENG 5.1
Language : English
[/color]

[color=green]Audio #3[/color]
[color=black]ID : 4
Format : AAC
Format/Info : Advanced Audio Codec
Format profile : HE-AAC / LC
Codec ID : A_AAC
Duration : 1h 26mn
Channel(s) : 2 channels
Channel positions : Front: L R
Sampling rate : 48.0 KHz / 24.0 KHz
Compression mode : Lossy
Title : AAC ITA 2.0
Language : Italian
[/color]

[color=green]Text #1[/color]
[color=black]ID : 5
Format : VobSub
Muxing mode : zlib
Codec ID : S_VOBSUB
Codec ID/Info : The same subtitle format used on DVDs
Title : ITA Forced
Language : Italian
[/color]

[color=green]Text #2[/color]
[color=black]ID : 6
Format : VobSub
Muxing mode : zlib
Codec ID : S_VOBSUB
Codec ID/Info : The same subtitle format used on DVDs
Title : ITA Completi
Language : Italian
[/color]

[color=green]Text #3[/color]
[color=black]ID : 7
Format : VobSub
Muxing mode : zlib
Codec ID : S_VOBSUB
Codec ID/Info : The same subtitle format used on DVDs
Title : ENG Forced
Language : English
[/color]

[color=green]Text #4[/color]
[color=black]ID : 8
Format : VobSub
Muxing mode : zlib
Codec ID : S_VOBSUB
Codec ID/Info : The same subtitle format used on DVDs
Title : ENG Non Udenti
Language : English
[/color]

[color=green]Menu[/color]
[color=black]00:00:00.000 : en:00:00:00.000
00:02:21.308 : en:00:02:21.308
00:04:08.039 : en:00:04:08.039
00:07:19.606 : en:00:07:19.606
00:11:07.542 : en:00:11:07.542
00:16:18.728 : en:00:16:18.728
00:18:09.797 : en:00:18:09.797
00:19:46.936 : en:00:19:46.936
00:23:19.732 : en:00:23:19.732
00:25:44.751 : en:00:25:44.751
00:30:13.270 : en:00:30:13.270
00:31:54.871 : en:00:31:54.871
00:39:25.029 : en:00:39:25.029
00:44:24.996 : en:00:44:24.996
00:46:52.852 : en:00:46:52.852
00:49:41.478 : en:00:49:41.478
00:51:36.802 : en:00:51:36.802
00:56:26.925 : en:00:56:26.925
01:00:40.929 : en:01:00:40.929
01:03:57.542 : en:01:03:57.542
01:06:07.213 : en:01:06:07.213
01:10:17.130 : en:01:10:17.130
01:14:32.385 : en:01:14:32.385
01:17:33.107 : en:01:17:33.107
[/color]


[align=center][color=green].:Screenshot:.[/color]

[URL=http://img831.imageshack.us/i/immaginexc.png/]
http://img831.imageshack.us/img831/8208/immaginexc.th.png
[/URL]
[URL=http://img703.imageshack.us/i/immagine2tq.png/]
http://img703.imageshack.us/img703/1999/immagine2tq.th.png
[/URL]
[URL=http://img121.imageshack.us/i/immagine3it.png/]
http://img121.imageshack.us/img121/8129/immagine3it.th.png
[/URL]
[URL=http://img861.imageshack.us/i/immagine4h.png/]
http://img861.imageshack.us/img861/3179/immagine4h.th.png
[/URL]
[URL=http://img828.imageshack.us/i/immagine5pz.png/]
http://img828.imageshack.us/img828/7646/immagine5pz.th.png
[/URL]
[URL=http://img192.imageshack.us/i/immagine6x.png/]
http://img192.imageshack.us/img192/5369/immagine6x.th.png
[/URL]

Related torrents

Torrent NameAddedSizeSeedLeechHealth
Verified torrent
1 Year+ - in Movies4.38 GB15
Verified torrent
1 Year+ - in Movies15.9 GB145
1 Year+ - in Movies2.19 GB00
Verified torrent
1 Year+ - in Movies7.96 GB00
1 Year+ - in Movies4.37 GB52

Comments (0 Comments)




Please login or create a FREE account to post comments

Latest Searches

| Wood | animated P L B | EvilAngel Megan Rain Marsha May Interviews NEW 28 June 2015 | mp4 justin timberlake | sage rq | Who Looks Hotter | rust 32x | first milk | date night desi | Lesley Gore You Dont Own Me |