Quick Browse
Movies
TV shows
Music
Games
Applications
Anime
Other

Donate and Support

Friends
Torrents.me
Torrent Download
Free Movies
1337x
RARBG
Torrent Downloads

Verified torrent The Sitter 2011 720p CAM Xvid-26K


    Seeders : 1      Leechers : 0
Hash :8DDADF6B2FF83F7B6C86FF65837A9E4E88B798DF
Added :1 Year+ by memory100Verified torrent uploader in Movies
Size :1.19 GB
Stream :Watch Full Movies Online @ Movie4u
Share :


The Sitter 2011 720p CAM Xvid-26K
Anonymous and Direct Download 300GB+ free







Warning! Do not Download Torrents Without a VPN!
Your IP Address is .   And Location is
Your Internet Provider and Government can track your torrent Activity!  Hide your IP ADDRESS with a VPN!
We Strongly Recommend Using SpyOFF Torrent VPN to Anonymize your Torrenting. It's FREE For 15 Days!

Note :

Please Update (Trackers Info) Before Downloading Torrents to See Updated Seeders And Leechers for Batter Download Speed.

Trackers List

Tracker NameLast CheckStatusSeedersLeechers




Torrent File Content (7 files)


The Sitter 2011 720p CAM Xvid-26K
     sample.avi -
27.93 MB

     sceneunderground.org.txt -
77 bytes

     att-networks.com.txt -
39 bytes

     Torrent downloaded from Demonoid.me.txt -
46 bytes

     The Sitter 2011 720p CAM Xvid-26K.avi -
1.16 GB

     The Sitter 2011 720p CAM Xvid-26K.nfo -
3.2 KB

     HDSceneRG.txt -
115 bytes



Description



http://img412.imageshack.us/img412/5232/sitterver2.jpg

[code]
The Sitter 2011 720p CAM Xvid-26K

Imdb:
http://www.imdb.com/title/tt1366344/

Plot:
A comedy about a college student on suspension who is coaxed into babysitting the kids next door, though he is fully unprepared for the wild night ahead of him.

Sources:
UNKNOWN! thnxs bud!

Notes:
Encoded the video added a few filters to make it look nice :)

Greetz:
Xtreme Encode|FYA|ILLUMANTI|CM8|RX|VISION|HDSCENE|NIGHTMAREZ|xTriLL|DTRG|CRYS|REMIXHD|BIDA
To all the people who have helped me :P you know who you are

Anything to offer email us @: [email protected]

Video
ID : 0
Format : MPEG-4 Visual
Format profile : Advanced [email protected]
Format settings, BVOP : 2
Format settings, QPel : No
Format settings, GMC : No warppoints
Format settings, Matrix : Default (H.263)
Codec ID : XVID
Codec ID/Hint : XviD
Duration : 1h 16mn
Bit rate : 1 900 Kbps
Width : 1 280 pixels
Height : 720 pixels
Display aspect ratio : 16:9
Frame rate : 29.970 fps
Color space : YUV
Chroma subsampling : 4:2:0
Bit depth : 8 bits
Scan type : Progressive
Compression mode : Lossy
Bits/(Pixel*Frame) : 0.069
Stream size : 1.02 GiB (88%)
Writing library : XviD 63

Audio
ID : 1
Format : AC-3
Format/Info : Audio Coding 3
Mode extension : CM (complete main)
Codec ID : 2000
Duration : 1h 16mn
Bit rate mode : Constant
Bit rate : 256 Kbps
Channel(s) : 2 channels
Channel positions : Front: L R
Sampling rate : 48.0 KHz
Bit depth : 16 bits
Compression mode : Lossy
Stream size : 141 MiB (12%)
Alignment : Aligned on interleaves
Interleave, duration : 33 ms (1.00 video frame)

[/code]
Screens:
http://img405.imageshack.us/img405/605/vlcsnap2011122214h44m51.png

http://img256.imageshack.us/img256/3946/vlcsnap2011122214h44m57.png

http://img841.imageshack.us/img841/1465/vlcsnap2011122214h45m01.png

http://img21.imageshack.us/img21/5251/vlcsnap2011122214h45m07.png

http://img815.imageshack.us/img815/6760/vlcsnap2011122214h45m12.png



http://img851.imageshack.us/img851/5503/26ks.jpg
#
Thank you smallz for banner!

Related torrents

Torrent NameAddedSizeSeedLeechHealth
1 Year+ - in Movies1.19 GB00
Verified torrent
1 Year+ - in Movies1.16 GB10
1 Year+ - in Movies2.15 GB2172
Verified torrent
1 Year+ - in Movies2.16 GB00
Verified torrent
1 Year+ - in Movies1.6 GB10

Comments (0 Comments)




Please login or create a FREE account to post comments

Latest Searches

| Son is fucking | nit i dia 1x01 | 2Chainz ft K o | slipknot mate feed kill repeat | Richler Imposter Bride | lo mejor de la mejor | paco 062717 | bag on me boogie | Samantha Stockings A Goes Dogging | twice ooh ahh |