Quick Browse
Movies
TV shows
Music
Games
Applications
Anime
Other
Facebook
Advertising

Friends
Torrent Download
Movie4u
1337x.to
Torrent Downloads




Verified torrent The Sitter 2011 720p TS XviD-26K


    Seeders : 1      Leechers : 0
Hash :0A52BBE5AB39F7ABB1ECBF2D21019AFCF9C772D3
Added :1 Year+ by memory100Verified torrent uploader in Movies
Size :1.16 GB
Stream :WATCH ONLINE @ Movie4u


The Sitter 2011 720p TS XviD-26K
Free and Fast Download with Usenet 300GB+ free







Trackers List

Tracker NameLast CheckStatusSeedersLeechers




Torrent File Content (7 files)


The Sitter 2011 720p TS XviD-26K
     sample.avi -
53.73 MB

     sceneunderground.org.txt -
77 bytes

     att-networks.com.txt -
39 bytes

     Torrent downloaded from Demonoid.me.txt -
46 bytes

     The Sitter 2011 720p TS XviD-26K.avi -
1.1 GB

     The Sitter 2011 720p TS XviD-26K.nfo -
3.55 KB

     HDSceneRG.txt -
115 bytes



Description



http://img6.imageshack.us/img6/6571/sitteru.jpg

[code]
The Sitter 2011 720p TS XviD-26K

Imdb:
http://www.imdb.com/title/tt1366344/

Plot:
A comedy about a college student on suspension who is coaxed into babysitting the kids next door, though he is fully unprepared for the wild night ahead of him.

Sources:
UNKNOWN VIDEO!! THNXS
AUDIO !!TH3GRiNCH thnxs !!

Notes:
used the 720p cam video and muxed the line in thnxs to TH3GRiNCH for the line your ock :P
Encoded the video added a few filters to make it look nice :)


Greetz:
Xtreme Encode|FYA|ILLUMANTI|CM8|RX|VISION|HDSCENE|NIGHTMAREZ|xTriLL|DTRG|CRYS|REMIXHD|BIDA
To all the people who have helped me :P you know who you are

Anything to offer email us @: [email protected]

Video
ID : 0
Format : MPEG-4 Visual
Format profile : Advanced [email protected]
Format settings, BVOP : 2
Format settings, QPel : No
Format settings, GMC : No warppoints
Format settings, Matrix : Default (H.263)
Codec ID : XVID
Codec ID/Hint : XviD
Duration : 1h 17mn
Bit rate : 1 900 Kbps
Width : 1 280 pixels
Height : 646 pixels
Display aspect ratio : 1.981
Frame rate : 24.000 fps
Color space : YUV
Chroma subsampling : 4:2:0
Bit depth : 8 bits
Scan type : Progressive
Compression mode : Lossy
Bits/(Pixel*Frame) : 0.096
Stream size : 1.03 GiB (93%)
Writing library : XviD 63

Audio
ID : 1
Format : MPEG Audio
Format version : Version 1
Format profile : Layer 3
Mode : Joint stereo
Mode extension : MS Stereo
Codec ID : 55
Codec ID/Hint : MP3
Duration : 1h 17mn
Bit rate mode : Constant
Bit rate : 128 Kbps
Channel(s) : 2 channels
Sampling rate : 44.1 KHz
Compression mode : Lossy
Stream size : 71.0 MiB (6%)
Alignment : Aligned on interleaves
Interleave, duration : 42 ms (1.00 video frame)
Writing library : LAME3.98r
Encoding settings : -m j -V 4 -q 2 -lowpass 17 -b 128

[/code]
Screens:
http://img9.imageshack.us/img9/9458/vlcsnap2011122615h17m10.png

http://img4.imageshack.us/img4/111/vlcsnap2011122615h17m15.png

http://img405.imageshack.us/img405/6766/vlcsnap2011122615h17m19.png

http://img17.imageshack.us/img17/5686/vlcsnap2011122615h17m28.png

http://img440.imageshack.us/img440/8734/vlcsnap2011122615h17m37.png

http://img838.imageshack.us/img838/4343/vlcsnap2011122615h17m41.png


http://img851.imageshack.us/img851/5503/26ks.jpg
#
Thank you smallz for banner!

Related torrents

Torrent NameAddedSizeSeedLeechHealth
1 Year+ - in Movies1.19 GB00
Verified torrent
1 Year+ - in Movies1.19 GB10
1 Year+ - in Movies1.83 GB00
1 Year+ - in Movies1.86 GB172
1 Year+ - in Movies1.83 GB169

Comments (0 Comments)




Please login or create a FREE account to post comments

Latest Searches

| dark matter s01e12 720p web dl dd5 1 h 264 eci rartv | Zero Tolerance Fishnets 8 2008 DVDRip | Adrian Maya Charles Dera | Blacked a Jillian Janson a Minnesota Teen Tries First Interracial Threesome | Jabardast movie | will grace season 8 | septagon deadhead syndicate | cerrone | the lonely island jack | 2005 |