Quick Browse
Movies
TV shows
Music
Games
Applications
Anime
Other

Latest Articles

Friends
Torrents.me
Torrent Download
Free Movies
1337x
RARBG
Torrent Downloads

The Snowman 2017 BRRip XviD MP3-VVEXO


    Seeders : 0      Leechers : 0

Hash :B9D6A79F96D937C8EEA895B013658EFD59D7CEF3
Added :6 days ago in Movies - Movies
Size :1.01 GB
Stream :Watch Online Full Movie @ Movie4u
Share :


The Snowman 2017 BRRip XviD MP3-VVEXO
Download Direct And Anonymously







Warning! Do not Download Torrents Without a VPN!
Your IP Address is .   And Location is
Your Internet Provider and Government can track your torrent Activity!  Hide your IP ADDRESS with a VPN!
We Strongly Recommend Using SpyOFF Torrent VPN to Anonymize your Torrenting. It's FREE for 15 Days!

Note :

Please Update (Trackers Info) Before Downloading Torrents to See Updated Seeders And Leechers for Batter Download Speed.

Trackers List

Tracker NameLast CheckStatusSeedersLeechers




Torrent File Content (4 files)


The Snowman 2017 BRRip.XviD.MP3-VVEXO
    Info
          The.Snowman.2017.BRRip.XviD.MP3-VVEXO.nfo -
3.77 KB

          Torrent_downloaded_from_Demonoid_-_www.demonoid.pw_.txt -
59 bytes

     sample.avi -
93.7 MB

     The.Snowman.2017.BRRip.XviD.MP3-VVEXO.avi -
945.44 MB



Description



Movies : Thriller : Blu-ray  : English
Loading... (function(){ var D=new Date(),d=document,b='body',ce='createElement',ac='appendChild',st='style',ds='display',n='none',gi='getElementById'; var i=d[ce]('iframe');i[st][ds]=n;d[gi]("M244525ScriptRootC122102")[ac](i);try{var iw=i.contentWindow.document;iw.open();iw.writeln("");iw.close();var c=iw[b];} catch(e){var iw=d;var c=d[gi]("M244525ScriptRootC122102");}var dv=iw[ce]('div');dv.id="MG_ID";dv[st][ds]=n;dv.innerHTML=122102;c[ac](dv); var s=iw[ce]('script');s.async='async';s.defer='defer';s.charset='utf-8';s.src="//jsc.adskeeper.co.uk/d/e/demonoid.pw.122102.js?t="+D.getYear()+D.getMonth()+D.getDate()+D.getHours();c[ac](s);})();


The Snowman 2017 BRRip.XviD.MP3-VVEXO









The Snowman (2017)







R | 1h 59min | Crime, Drama, Horror | 13 October 2017 (UK)

When an elite crime squad's lead detective investigates the disappearance of a victim on the first snow of winter, he fears an elusive serial killer may be active again. With the help of a brilliant recruit, the cop must connect decades-old cold cases to the brutal new one if he hopes to outwit this unthinkable evil before the next snowfall.

Director: Tomas Alfredson

Writers: Peter Straughan (screenplay by), Hossein Amini (screenplay by)









Val Kilmer > Gert Rafto
Charlotte Gainsbourg > Rakel
Chloe Sevigny > Sylvia Ottersen
James D'Arcy > Filip Becker
Rebecca Ferguson > Katrine Bratt
Alec Newman > Mould Man
J.K. Simmons > Arve Stop
Ronan Vibert > DCI Gunnar Hagen
Michael Fassbender > Harry Hole
David Dencik > Idar Vetlesen
Jakob Oftebro > Superintendant Skarre
Jamie Clayton > Edda
Silvia Busuioc > Beautiful Girl













General
Complete name : The.Snowman.2017.BRRip.XviD.MP3-VVEXO.avi
Format : AVI
Format/Info : Audio Video Interleave
File size : 1.02 GiB
Duration : 1 h 59 min
Overall bit rate : 1 220 kb/s
Writing application : MEncoder SVN-r22963
Writing library : MPlayer

Video
ID : 0
Format : MPEG-4 Visual
Format profile : [email protected]
Format settings, BVOP : No
Format settings, QPel : No
Format settings, GMC : No warppoints
Format settings, Matrix : Default (H.263)
Codec ID : XVID
Codec ID/Hint : XviD
Duration : 1 h 59 min
Bit rate : 1 080 kb/s
Width : 720 pixels
Height : 384 pixels
Display aspect ratio : 1.85:1
Frame rate : 23.976 (24000/1001) FPS
Color space : YUV
Chroma subsampling : 4:2:0
Bit depth : 8 bits
Scan type : Progressive
Compression mode : Lossy
Bits/(Pixel*Frame) : 0.163
Stream size : 921 MiB (89%)
Writing library : Lavc51.40.2

Audio
ID : 1
Format : MPEG Audio
Format version : Version 1
Format profile : Layer 3
Codec ID : 55
Codec ID/Hint : MP3
Duration : 1 h 59 min
Bit rate mode : Constant
Bit rate : 128 kb/s
Channel(s) : 2 channels
Sampling rate : 44.1 kHz
Compression mode : Lossy
Stream size : 109 MiB (10%)
Alignment : Aligned on interleaves
Interleave, duration : 26 ms (0.63 video frame)
Interleave, preload duratio : 522 ms








Show Demonoid some love with BitCoin: 1DNoid2VRyfYn9T38Z1SZ5XncG7WMgCeUL How to get BitCoin?

Facebook Twitter Google Digg Reddit LinkedIn StumbleUpon Email

Related torrents

Torrent NameAddedSizeSeedLeechHealth
11 days ago - in Movies683.4 MB74
1 Year+ - in Movies1.66 GB42
9 days ago - in Movies2.18 GB54
9 days ago - in Movies2.18 GB83
14 days ago - in Movies1.41 GB283147
3 months ago - in Movies1.8 GB226

Note :

Feel free to post any comments about this torrent, including links to Subtitle, samples, screenshots, or any other relevant information. Please Dont Download anything from Comments, And Dont Post Links to Streaming Sites like Fmovies, Xmovies8, 123Movies, GoMovies, CMovieshd, Solarmovie, Watchfree, Putlockers, GoStream, m4ufree etc.

Comments (0 Comments)




Please login or create a FREE account to post comments

Latest Searches

| Nhl 2011 | spy 720 2015 | wwe smackdown 5 16 | adobe photoshop cc master collection | wii inazuma eleven go strikers | the unit 1x01 | conver x | Lana Del Ray Gods | dando y dando | the dividend |