Quick Browse
Movies
TV shows
Music
Games
Applications
Anime
Other
Facebook
Advertising

Friends
Torrent Download
Movie4u
1337x.to
Torrent Downloads




Verified torrent The Sorcerers Apprentice TS XViD IMAGiNE - {XtremeTorrents}


    Seeders : 546      Leechers : 98

Trackers List

Tracker NameLast CheckStatusSeedersLeechers




Torrent File Content (8 files)


The Sorcerer's Apprentice TS XViD IMAGiNE
     release info.txt -
4.92 KB

     sample.avi -
15.5 MB

     The Sorcerer's Apprentice TS XViD IMAGiNE.avi -
1.4 GB

     Torrent downloaded from AhaShare.com.txt -
59 bytes

     Torrent downloaded from Demonoid.com.txt -
47 bytes

     Torrent downloaded from ExtraTorrent.com.txt -
48 bytes

     Torrent downloaded from Kingdom-KVCD.net.txt -
52 bytes

     Torrent downloaded from thepiratebay.org.txt -
48 bytes



Description



PLOT
Master sorcerer Balthazar Blake recruits a seemingly everyday guy in his mission to defend New York City from his arch-nemesis, Maxim Horvath.

RELEASE INFORuntime...........:1h 38mn
Language..........:ENGLISH

Video
Format : MPEG-4 Visual
Format profile : Streaming [email protected]
Format settings, BVOP : Yes
Format settings, QPel : No
Format settings, GMC : No warppoints
Format settings, Matrix : Default
Muxing mode : Packed bitstream
Codec ID : XVID
Codec ID/Hint : XviD
Duration : 1h 38mn
Bit rate : 1 897 Kbps
Width : 640 pixels
Height : 272 pixels
Display aspect ratio : 2.35
Frame rate : 25.000 fps
Resolution : 24 bits
Colorimetry : 4:2:0
Scan type : Progressive
Bits/(Pixel*Frame) : 0.436
Stream size : 1.30 GiB (93%)
Writing library : XviD 50

Audio
Format : MPEG Audio
Format version : Version 1
Format profile : Layer 3
Codec ID : 55
Codec ID/Hint : MP3
Duration : 1h 38mn
Bit rate mode : Constant
Bit rate : 128 Kbps
Channel(s) : 2 channels
Sampling rate : 44.1 KHz
Resolution : 16 bits
Stream size : 90.1 MiB (6%)
Alignment : Split accross interleaves
Interleave, duration : 40 ms (1.00 video frame)
Interleave, preload duration : 500 ms

Related torrents

Torrent NameAddedSizeSeedLeechHealth
1 Comments
1 Year+ - in Movies1.41 GB10583
1 Comments
1 Year+ - in Movies1.41 GB119
1 Comments
1 Good
Verified torrent
1 Year+ - in Movies674.36 MB00
2 Comments
1 Good
Verified torrent
1 Year+ - in Movies710.98 MB16140
Verified torrent
1 Year+ - in Movies1.43 GB2711

Comments (0 Comments)




Please login or create a FREE account to post comments

Latest Searches

| bbd dvdrip | Ae Dil Hai Mushkil 2016 720p DVDRip x264 AC3 ESub DDR | planet earth II s01e03 1080p x264 | 11 30 2016 aka | Vikings S04E12 720p WEB DL | planet earth II 1080p | club a partouze | overdrive theme | ramin djawadi season 3 game of thrones | m dos |