Quick Browse
Movies
TV shows
Music
Games
Applications
Anime
Other
Facebook
Advertising

Friends
Torrent Download
Movie4u
1337x.to
Torrent Downloads




The Spiderwick Chronicles DVDRIP Hindi ~3385VKSH


    Seeders : 13      Leechers : 14
Hash :1F7EAE02BB49D83CCBEF7B0EA010DCB55BD26313
Added :1 Year+ by VKS3385Verified torrent uploader in Movies
Size :791.2 MB
Stream :WATCH ONLINE @ Movie4u


The Spiderwick Chronicles DVDRIP Hindi ~3385VKSH
Free and Fast Download with Usenet 300GB+ free







Trackers List

Tracker NameLast CheckStatusSeedersLeechers




Torrent File Content (9 files)


The.Spiderwick.Chronicles[2008]
     The.Spiderwick.Chronicles[2008].avi -
790.54 MB

     The.Spiderwick.Chronicles[2008].avi.txt -
6.46 KB

     The.Spiderwick.Chronicles[2008].avi_snapshot_00.18.54_[2010.07.05_12.23.45].jpg -
24.13 KB

     The.Spiderwick.Chronicles[2008].avi_snapshot_00.26.02_[2010.07.05_12.24.27].jpg -
21.98 KB

     The.Spiderwick.Chronicles[2008].avi_snapshot_00.46.04_[2010.07.05_12.24.33].jpg -
35.46 KB

     The.Spiderwick.Chronicles[2008].avi_snapshot_01.15.21_[2010.07.05_12.24.47].jpg -
23.33 KB

     The.Spiderwick.Chronicles[2008].avi_snapshot_01.15.26_[2010.07.05_12.24.52].jpg -
27.95 KB

     The.Spiderwick.Chronicles[2008].avi_snapshot_01.26.34_[2010.07.05_12.25.02].jpg -
20.47 KB

     The.Spiderwick.Chronicles[2008].avi_thumbs_[2010.07.05_12.25.06].jpg -
520.36 KB



Description



http://blatantbibliophiles.files.wordpress.com/2008/03/spiderwick_chronicles.png

http://img340.imageshack.us/img340/1050/hddesirockers.png

http://img62.imageshack.us/img62/5382/roadsignphp.png

http://www.entertainmentwallpaper.com/images/desktops/movie/the_spiderwick_chronicles10.jpg

http://www.wallpaperez.net/wallpaper/movie/Spiderwick-1470.jpg


http://i50.tinypic.com/zvbzx2.jpg

General
Complete name :The.Spiderwick.Chronicles[2008].avi
Format : AVI
Format/Info : Audio Video Interleave
File size : 791 MiB
Duration : 1h 35mn
Overall bit rate : 1 154 Kbps
Writing application : VirtualDubMod 1.5.10.2 (build 2542/release)
Writing library : VirtualDubMod build 2542/release


http://img37.imageshack.us/img37/7218/vlcfile.png

Video
ID : 0
Format : MPEG-4 Visual
Format profile : Advanced [email protected]
Format settings, BVOP : Yes
Format settings, QPel : No
Format settings, GMC : No warppoints
Format settings, Matrix : Default (MPEG)
Muxing mode : Packed bitstream
Codec ID : XVID
Codec ID/Hint : XviD
Duration : 1h 35mn
Bit rate : 844 Kbps
Width : 640 pixels
Height : 272 pixels
Display aspect ratio : 2.35:1
Frame rate : 23.976 fps
Color space : YUV
Chroma subsampling : 4:2:0
Bit depth : 8 bits
Scan type : Progressive
Bits/(Pixel*Frame) : 0.202
Stream size : 578 MiB (73%)
Writing library : XviD 1.1.2 (UTC 2006-11-01)


http://img248.imageshack.us/img248/6613/musicfile1.png

Audio #English
ID : 1
Format : MPEG Audio
Format version : Version 1
Format profile : Layer 3
Mode : Joint stereo
Mode extension : MS Stereo
Codec ID : 55
Codec ID/Hint : MP3
Duration : 1h 35mn
Bit rate mode : Variable
Bit rate : 165 Kbps
Channel(s) : 2 channels
Sampling rate : 48.0 KHz
Stream size : 113 MiB (14%)
Alignment : Aligned on interleaves
Interleave, duration : 24 ms (0.58 video frame)
Interleave, preload duration : 116 ms
Writing library : LAME3.90.
Encoding settings : -m j -V 2 -q 2 -lowpass 19 --vbr-new

Audio #Hindi
ID : 2
Format : MPEG Audio
Format version : Version 1
Format profile : Layer 3
Mode : Joint stereo
Mode extension : MS Stereo
Codec ID : 55
Codec ID/Hint : MP3
Duration : 1h 35mn
Bit rate mode : Constant
Bit rate : 128 Kbps
Channel(s) : 2 channels
Sampling rate : 48.0 KHz
Video delay : 96ms
Stream size : 87.6 MiB (11%)
Alignment : Aligned on interleaves
Interleave, duration : 42 ms (1.00 video frame)
Interleave, preload duration : 504 ms

http://img52.imageshack.us/img52/7996/ogtw21.gif


http://img43.imageshack.us/img43/1981/thespiderwickchronicles.jpg

http://img208.imageshack.us/img208/1981/thespiderwickchronicles.jpg

http://img143.imageshack.us/img143/1981/thespiderwickchronicles.jpg

http://img188.imageshack.us/img188/1981/thespiderwickchronicles.jpg

http://img683.imageshack.us/img683/1981/thespiderwickchronicles.jpg

http://img695.imageshack.us/img695/3481/thespiderwickchroniclesl.jpg

http://img29.imageshack.us/img29/4674/thespiderwickchroniclesi.jpg


http://img41.imageshack.us/img41/4206/slqp2p1.gif

http://img205.imageshack.us/img205/91/15880378.png


Related torrents

Torrent NameAddedSizeSeedLeechHealth
1 Year+ - in Movies283.81 MB00
1 Year+ - in Other697.43 MB00
1 Year+ - in Movies725.08 MB13
1 Year+ - in Movies358.51 MB271739
1 Year+ - in Other150.87 MB00

Comments (0 Comments)




Please login or create a FREE account to post comments

Latest Searches

| pussy bottle wine | cloe s | venus lux jordan jay | Lifestyle for Men Issue 38 2016by robert | red head small tits | Cindy Shine Solo 6 | cut book | desi scandal of the year | Mariah Carey MTV Unplugged Mariah Carey | greek audio |