Quick Browse
Movies
TV shows
Music
Games
Applications
Anime
Other
Facebook
Advertising

Friends
Torrent Download
Movie4u
1337x.to
Torrent Downloads




The Vampire Diaries S02E03-04 HDTV XviD-Eng Sub_Ita-[IDN_CREW]


    Seeders : 1      Leechers : 1

Trackers List

Tracker NameLast CheckStatusSeedersLeechers




Torrent File Content (3 files)


The.Vampire.Diaries.S02E03-04.HDTV.XviD-Eng.Sub_Ita-[IDN_CREW]
     IDN_CREW Leggimi.txt -
294 bytes

     The.Vampire.Diaries.S02E03.HDTV.XviD-Eng.Sub_Ita-[IDN_CREW].avi -
350.02 MB

     The.Vampire.Diaries.S02E04.HDTV.XviD-Eng.Sub_Ita-[IDN_CREW].avi -
350 MB



Description




http://img155.imageshack.us/img155/6603/vampirediarieslogo.png

http://img835.imageshack.us/img835/7223/wallpaperlanuovaseriedi.jpg


[color=red]STAGIONE 2 HDTV ENG + SUB ITA[/color]

http://img514.imageshack.us/img514/1502/inforelease.png


[color=red]
[color=black]Titolo:[/color] The Vampire Diaries
[color=black]Anno: [/color]2010-2011
[color=black]Nazionalità: [/color]United States
[color=black]Genere:[/color] Horror - Thriller - Fantasy
[color=black]Lingua:[/color] Inglese
[color=black]Stagione:[/color] 2
[color=black]Episodi:[/color] 22
[color=black]Durata Episodio:[/color] 45 min ca (episodio)
[color=black]Ideatore:[/color] Kevin Williamson
[color=black]Produzione:[/color] The CW [color=beige]
Fonti:[/color] [color=red] http://it.wikipedia.org/wiki/The_Vampire_Diaries#Episodi [/color]
[/color]

http://img685.imageshack.us/img685/5835/casta.png


http://img805.imageshack.us/img805/2478/thevampirediariescast55t.jpg


Nina Dobrev: Elena Gilbert/Katherine Pierce
Paul Wesley: Stefan Salvatore
Ian Somerhalder: Damon Salvatore
Steven R. McQueen: Jeremy Gilbert
Sara Canning: Jenna Sommers
Katerina Graham: Bonnie Bennett
Candice Accola: Caroline Forbes
Zach Roerig: Matt Donovan
Michael Trevino: Tyler Lockwood
Matthew Davis: Alaric Saltzman

http://img153.imageshack.us/img153/7608/tramao.png


[color=black]La serie è ambientata a Mystic Falls, una cittadina con un passato ricco di vicende soprannaturali. Elena Gilbert e il fratello Jeremy hanno da poco subito la perdita dei loro genitori, morti in un incidente stradale, e sono andati a vivere insieme alla loro giovane zia, Jenna. Il vampiro centenario Stefan Salvatore torna nella sua città natale, e incontrando Elena si accorge che la ragazza assomiglia in modo impressionante a Katherine, la donna che vampirizzò lui e suo fratello Damon durante gli anni della guerra civile. Elena e Stefan iniziano a frequentarsi, ma la loro relazione è ostacolata dal fratello di lui, tornato a Mystic Fall per vendicarsi della morte di Katherine.
[/color]


http://img864.imageshack.us/img864/7976/episodi.png



[color=red]2×01 The Return
2×02 Brave New World
2×03 Bad Moon Rising
2×04 Memory Lane
2×05 Kill Or Be Killed
2×06 Plan B
2×07 Masquerade
2×08 Rose
2×09 Katerina
2×10 The Sacrifice
2×11 By The Light Of The Moon 2×12 The Descent
2×13 Daddy Issues
2×14 Crying Wolf
2×15 The Dinner Party
2×16 The House Guest
2×17 Know Thy Enemy
2×18 The Last Dance
2×19 Klaus
2×20 The Last Day
2×21 The Sun Also Rises
2×22 As I Lay Dying


[/color]

http://img190.imageshack.us/img190/7663/recension.png


[color=black] The Vampire Diaries è una serie televisiva statunitense di genere horror creata da Kevin Williamson, che ha debuttato il 10 settembre 2009 sul network The CW. È basata sull'omonima serie di libri di Lisa Jane Smith, dal titolo italiano Il diario del vampiro. Il pilot negli Stati Uniti ha registrato ottimi ascolti (4,84 milioni di telespettatori). Il 16 febbraio 2010 la serie è stata rinnovata per una seconda stagione, che viene trasmessa negli Stati Uniti dal 9 settembre 2010. L'episodio pilota è stato girato a Vancouver, mentre i seguenti nella città di Covington, in Georgia. La serie ha ricevuto una buona accoglienza da parte del pubblico, vincendo un People's Choice Award e sette Teen Choice Award nel 2010.

In Italia la seconda stagione sarà trasmessa sul canale Mya a partire dal 10 ottobre 2011

Il 26 aprile 2011 la serie è stata rinnovata per una terza stagione.
[/color]

http://img529.imageshack.us/img529/7286/datifile.png


http://img101.imageshack.us/img101/1549/tvdnovsweepsnuovoposter.jpg


Lingua: Inglese

Sottotitoli in Italiano impressi a video
[color=red]Si ringrazia ITASA italiansubs[/color]

Programma Usato: Avirecomp


[color=black] General
Complete name : The.Vampire.Diaries.S02E03.HDTV.XviD-Eng.Sub_Ita-[IDN_CREW].avi
Format : AVI
Format/Info : Audio Video Interleave
File size : 350 MiB
Duration : 41mn 39s
Overall bit rate : 1 175 Kbps
Writing application : VirtualDubMod 1.5.10.2 (build 2542/release)
Writing library : VirtualDubMod build 2542/release

Video
Format : MPEG-4 Visual
Format profile : Streaming [email protected]
Format settings, BVOP : Yes
Format settings, QPel : No
Format settings, GMC : No warppoints
Format settings, Matrix : Default
Muxing mode : Packed bitstream
Codec ID : XVID
Codec ID/Hint : XviD
Duration : 41mn 39s
Bit rate : 1 006 Kbps
Width : 624 pixels
Height : 352 pixels
Display aspect ratio : 16/9
Frame rate : 23.976 fps
Resolution : 24 bits
Colorimetry : 4:2:0
Scan type : Progressive
Bits/(Pixel*Frame) : 0.191
Stream size : 300 MiB (86%)
Writing library : XviD 62

Audio
Format : MPEG Audio
Format version : Version 1
Format profile : Layer 3
Codec ID : 55
Codec ID/Hint : MP3
Duration : 41mn 39s
Bit rate mode : Variable
Bit rate : 156 Kbps
Channel(s) : 2 channels
Sampling rate : 48.0 KHz
Resolution : 16 bits
Stream size : 46.4 MiB (13%)
Alignment : Aligned on interleaves
Interleave, duration : 24 ms (0.58 video frame)
Interleave, preload duration : 410 ms[/color]

http://img189.imageshack.us/img189/1692/vlcsnap2011050421h31m36.png

http://img837.imageshack.us/img837/3038/vlcsnap2011050421h31m46.png

http://img840.imageshack.us/img840/4972/vlcsnap2011050421h31m57.png

http://img31.imageshack.us/img31/2394/vlcsnap2011050421h32m05.png

http://img828.imageshack.us/img828/4015/vlcsnap2011050421h32m11.png


Related torrents

Torrent NameAddedSizeSeedLeechHealth
Verified torrent
1 Year+ - in TV shows700.02 MB12
1 Year+ - in TV shows723.11 MB21
1 Year+ - in TV shows365 MB00
Verified torrent
1 Year+ - in TV shows688.18 MB14
1 Year+ - in TV shows358.09 MB10

Comments (0 Comments)




Please login or create a FREE account to post comments

Latest Searches

| Courtney Cummz Mary Anne | milftoon friends with benefits adult comic | passion hd bailey brooke shower seductress 12 03 16 | NDS Horse And Foal My Riding Stables EUR ESPALNDS com zip | best softrock | rocky ft asap rip | LetsTryAnal Mia Martinez All Natural Latina Offers Anal 01 12 2016 mp4 | lil Wayne ft juelz Santana throw some d | saigon anniversary | Billboard Year End 2016 |