Quick Browse
Movies
TV shows
Music
Games
Applications
Anime
Other
Facebook
Advertising

Friends
Torrent Download
Movie4u
1337x.to
Torrent Downloads




Verified torrent The Vampire Diaries S03E13 HDTV XviD Eng Sub_Ita-[IDN_CREW]


    Seeders : 0      Leechers : 0

Trackers List

Tracker NameLast CheckStatusSeedersLeechers




Torrent File Content (2 files)


The.Vampire.Diaries.S03E13.HDTV.XviD.Eng.Sub_Ita-[IDN_CREW]
     IDN_CREW Leggimi.txt -
294 bytes

     The.Vampire.Diaries.S03E13.HDTV.XviD.Eng.Sub_Ita-[IDN_CREW].avi -
355.74 MB



Description



http://img854.imageshack.us/img854/1920/thevampirediarieslocand.jpg


[color=red]The Vampire Diaries – Stagione 3 [/color]
HDTv Eng mp3 Sub Ita

http://img514.imageshack.us/img514/1502/inforelease.png


[color=red]Titolo:[/color] The Vampire Diaries
[color=red]Anno: [/color]2011
[color=red]Nazionalità: [/color]USA
[color=red]Genere:[/color] horror, thriller, fantasy
[color=red]Lingua:[/color] Italiano/Inglese
[color=red]Stagione:[/color] 3
[color=red]Episodi:[/color] 22
[color=red]Durata Episodio:[/color] 45 min ca (episodio)
[color=red]Ideatore:[/color] Kevin Williamson
[color=red]Produzione:[/color] The CW


http://img685.imageshack.us/img685/5835/casta.png


http://img4.imageshack.us/img4/3775/ninadobrev150x150.jpg

http://img508.imageshack.us/img508/3158/paulwesley150x150.jpg

http://img97.imageshack.us/img97/3851/iansomerhalder150x150.jpg

http://img855.imageshack.us/img855/8820/josephmorgan150x150.jpg


•Nina Dobrev: Elena Gilbert/Katherine Pierce
•Paul Wesley: Stefan Salvatore
•Ian Somerhalder: Damon Salvatore
•Steven R. McQueen: Jeremy Gilbert
•Katerina Graham: Bonnie Bennett
•Candice Accola: Caroline Forbes
•Zach Roerig: Matt Donovan
•Michael Trevino: Tyler Lockwood
•Matthew Davis: Alaric Saltzman
•Joseph Morgan: Klaus


http://img153.imageshack.us/img153/7608/tramao.png


La seconda stagione di The Vampire Diaries si è chiusa con un colpo di scena inimmaginabile con il ritorno dalla tomba di un personaggio che si era visto solo in una manciata di episodi della prima stagione. Ma non solo, un nuovo Stefan e un Damon incavolato dovranno ancora contendersi l’amore della bella Elena.
Già apparso in alcuni episodi del ciclo precedente, Joseph Morgan diventa un membro del cast regolare, mantenendo il ruolo del vampiro Klaus…..e mi fermo qua per non fare spoiler


http://img864.imageshack.us/img864/7976/episodi.png


1 The Birthday
2 The Hybrid
3 The End of the Affair
4 Disturbing Behavior
5 The Reckoning
6 Smells Like Teen Spirit
7 Ghost World
8 Ordinary People
9 Homecoming
10 The New Deal
11 Our Town
12 The Ties That Bind
13 Bringing Out the Dead


http://img190.imageshack.us/img190/7663/recension.png


Questa serie funziona a meraviglia. È così ben scritta e strutturata che fila via tranquilla come l’olio, lascia poche perplessità e pone le basi per un nuovo ciclo ancora più entusiasmante. A conti fatti, essendosi ormai chiusa l’era di Lost, TVD è il prodotto più serializzato attualmente in onda. Ma bisogna ricordare che portarsi dietro un carico considerevole di continuity e mitologia a volte significa auto contraddirsi e cominciare a mancare di coerenza. I vampiri di Mystic Falls, per adesso, sanno quello che fanno.


http://img529.imageshack.us/img529/7286/datifile.png


Programma usato: AVIRecomp

Rinfraziamenti ad ITASA per i Sub

Sottotitoli impressi a video

General
Complete name : The.Vampire.Diaries.S03E13.HDTV.XviD.Eng.Sub_Ita-[IDN_CREW].avi
Format : AVI
Format/Info : Audio Video Interleave
File size : 356 MiB
Duration : 42mn 4s
Overall bit rate : 1 182 Kbps

Video
Format : MPEG-4 Visual
Format profile : Streaming [email protected]
Format settings, BVOP : Yes
Format settings, QPel : No
Format settings, GMC : No warppoints
Format settings, Matrix : Default
Codec ID : XVID
Codec ID/Hint : XviD
Duration : 42mn 4s
Bit rate : 1 023 Kbps
Width : 624 pixels
Height : 352 pixels
Display aspect ratio : 16/9
Frame rate : 23.976 fps
Resolution : 24 bits
Colorimetry : 4:2:0
Scan type : Progressive
Bits/(Pixel*Frame) : 0.194
Stream size : 308 MiB (87%)
Writing library : XviD 62

Audio
Format : MPEG Audio
Format version : Version 1
Format profile : Layer 3
Codec ID : 55
Codec ID/Hint : MP3
Duration : 42mn 4s
Bit rate mode : Variable
Bit rate : 146 Kbps
Nominal bit rate : 145 Kbps
Channel(s) : 2 channels
Sampling rate : 48.0 KHz
Resolution : 16 bits
Stream size : 44.0 MiB (12%)
Alignment : Aligned on interleaves
Interleave, duration : 24 ms (0.58 video frame)
Interleave, preload duration : 296 ms
Writing library : LAME3.90.
Encoding settings : ABR



http://img20.imageshack.us/img20/4974/screenshotsph.png


http://img52.imageshack.us/img52/7145/thumbs20110926214126.jpg

Related torrents

Torrent NameAddedSizeSeedLeechHealth
1 Year+ - in TV shows358.09 MB10
1 Year+ - in TV shows339 MB00
1 Year+ - in TV shows379.96 MB11
1 Year+ - in TV shows349 MB11
1 Year+ - in TV shows339 MB17
Verified torrent
1 Year+ - in TV shows339 MB13

Comments (0 Comments)




Please login or create a FREE account to post comments

Latest Searches

| selena sosa a 18 year old brazilian | fuck strange | Person of Interest S04E22 HDTV x264 ChameE mkv | I cant make me love you | dc s legends tomorrow s02e07 | Cali Confidential Annie Cruz | Logic Ty Dolla ign | lonely day System of a down | 18 abused teens | you ve failed |