Quick Browse
Movies
TV shows
Music
Games
Applications
Anime
Other
Facebook
Advertising

Friends
Torrent Download
Movie4u
1337x.to
Torrent Downloads




Verified torrent The Vampires Assistant [2009] [Eng] [DVD] [AC3] [Hannspree]


    Seeders : 2      Leechers : 0

Trackers List

Tracker NameLast CheckStatusSeedersLeechers




Torrent File Content (12 files)


The Vampires Assistant
    The Vampires Assistant - Covers
          The Vampire's Assistant - Cover.jpg -
68.01 KB

          The Vampire's Assistant - Disc.jpg -
31.05 KB

    The Vampires Assistant - DVD
          VIDEO_TS/VIDEO_TS.BUP -
12 KB

          VIDEO_TS/VIDEO_TS.IFO -
12 KB

          VIDEO_TS/VIDEO_TS.VOB -
58 KB

          VIDEO_TS/VTS_01_0.BUP -
72 KB

          VIDEO_TS/VTS_01_0.IFO -
72 KB

          VIDEO_TS/VTS_01_0.VOB -
58 KB

          VIDEO_TS/VTS_01_1.VOB -
1023.97 MB

          VIDEO_TS/VTS_01_2.VOB -
592.41 MB

     The Vampires Assistant.NFO -
5.7 KB

     Torrent downloaded from Demonoid.com.txt -
47 bytes



Description



===============================================================================================
[ Another free and high quality, ready to burn DVD - I will be adding new torrents on a daily basis - Remember to seed ]
===============================================================================================
MOVIE TITLE: The Vampires Assissant
LANGUAGE: English
MOVIE SUBS: No - (subtitles if/when required)
BURN TESTED: Yes
FORMAT: Pal
GENRE: Action | Adventure | Fantasy | Thriller
RUNTIME: 105 Minutes
YEAR: 2009
IMDB LINK: http://www.imdb.com/title/tt0450405/
===============================================================================================
GENERAL MOVIE DESC:

Teenager Darren Shan is an excellent student and the pride and joy of his perfect middle-class family his best friend is the reckless Steve. When they receive a flyer with an advertisement for a freak show, they sneak to the theater to see the attractions. The ringmaster is a vampire called Larten Crepsley, that has a lethal spider. After the show, Steve tells Darren to go home. However he returns and overhears Steve unsuccessfully trying to convince Larten to transform him into a vampire. Darren steals Larten's spider which bites Steve later and he seeks out Larten asking for an antidote for his friend. Larten proposes a deal to Darren.
===============================================================================================
GENERAL MOVIE SPECS:

GENERAL:
Complete name : The Vampires Assistant
Format : MPEG-PS
File size : 1.57 GB
Duration : 105 Minutes
Overall bit rate : 2 274 Kbps

VIDEO:
ID : 224 (0xE0)
Format : MPEG Video
Format version : Version 2
Format profile : [email protected]
Format settings, BVOP : Yes
Format settings, Matrix : Default
Duration : 105 Minutes
Bit rate mode : Variable
Bit rate : 2 037 Kbps
Nominal bit rate : 9 608 Kbps
Width : 720 pixels
Height : 576 pixels
Display aspect ratio : 16:9
Frame rate : 25.000 fps
Standard : PAL
Color space : YUV
Chroma subsampling : 4:2:0
Bit depth : 8 bits
Scan type : Progressive
Bits/(Pixel*Frame) : 0.196
Stream size : 917 MiB (90%)

AUDIO:
ID : 128 (0x80)
Format : AC-3
Format/Info : Audio Coding 3
Mode extension : CM (complete main)
Duration : 105 Minutes
Bit rate mode : Constant
Bit rate : 192 Kbps
Channel(s) : 2 channels
Channel positions : Front: L R
Sampling rate : 48.0 KHz
Stream size : 86.4 MiB (8%)
===============================================================================================

Related torrents

Torrent NameAddedSizeSeedLeechHealth
Verified torrent
1 Year+ - in Movies1.99 GB10
1 Year+ - in TV shows1.66 GB00
1 Year+ - in Movies1.45 GB01
1 Year+ - in Movies1.45 GB2039
5 months ago - in Other1.32 GB00

Comments (0 Comments)




Please login or create a FREE account to post comments

Latest Searches

| As 3000 wiring rules | linux user developer 167 | Morgan 2016 WEB DL | the offspring l | fantasy pack | aretha franklin 1967 lady soul | wrecking ball mp3 Eric church | ghost hunters international s | NCAAF FLORIDA GATORS | Minecraft Pocket Edition v0 7 3 Android |