Quick Browse
TV shows

Latest Articles

Torrent Download
Free Movies
Torrent Downloads

Verified torrent The Vampires Assistant [2009] [Eng] [DVD] [AC3] [Hannspree]

    Seeders : 0      Leechers : 0

Hash :69CE31A003F622446E6B24D9FC5468CDA6BCD789
Added :1 Year+ by HannspreeVerified torrent uploader in Movies
Size :1.58 GB
Stream :Watch Online Full Movie @ Movie4u
Share :

Warning! Do not Download Torrents Without a VPN!
Your IP Address is .   And Location is
Your Internet Provider and Government can track your torrent Activity!  Hide your IP ADDRESS with a VPN!
We Strongly Recommend Using CyberGhost VPN to Anonymize your Torrenting.

Note :

Please Update (Trackers Info) Before Downloading Torrents to See Updated Seeders And Leechers for Batter Download Speed.

Trackers List

Tracker NameLast CheckStatusSeedersLeechers
udp://10.rarbg.me:80/announceLast Monthsuccess00
http://exodus.desync.com:6969/announceLast Monthsuccess00
http://tracker.thepiratebay.org/announceLast Monthsuccess00
http://tracker.istole.it/announceLast Monthsuccess00
http://bigfoot1942.sektori.org:6969/announceLast Monthsuccess00
http://announce.torrentsmd.com:6969/announceLast Monthsuccess00
http://tracker.nwps.ws:6969/announceLast Monthsuccess00
http://tracker.windsormetalbattery.com/announceLast Monthsuccess00
udp://tracker.coppersurfer.tk:80Last Monthsuccess00
udp://tracker.zond.org:80/announceLast Monthsuccess00
udp://tracker.ilibr.org:6969/announceLast Monthsuccess00
http://tracker.best-torrents.net:6969/announceLast Monthsuccess00
http://torrent.gresille.org/announceLast Monthsuccess00
udp://tracker2.torrentbox.com:2710/announceLast Monthsuccess00
http://tracker2.torrentbox.com:2710/announceLast Monthsuccess00
udp://inferno.demonoid.com:3398/announceLast Monthsuccess00
http://inferno.demonoid.com:3398/announceLast Monthsuccess00
http://torrent-tracker.ru/announce.phpLast Monthsuccess00
udp://tracker.btzoo.eu:80/announceLast Monthsuccess00
http://tracker.winglai.com/announceLast Monthsuccess00
udp://tracker.token.ro:80/announceLast Monthsuccess00
http://tracker.publicbt.com/announceLast Monthsuccess00
http://fr33dom.h33t.com:3310/announceLast Monthsuccess00
udp://tracker.ccc.de:80/announceLast Monthsuccess00
udp://open.demonii.com:1337/announceLast Monthsuccess00
udp://tracker.publicbt.com:80/announceLast Monthsuccess00
udp://tracker.openbittorrent.com:80/announceLast Monthsuccess00
udp://tracker.istole.it:80/announceLast Monthsuccess00
udp://ipv4.tracker.harry.lu:80/announceLast Monthsuccess00
udp://9.rarbg.com:2710/announceLast Monthsuccess00
http://tracker.trackerfix.com/announceLast Monthsuccess00
udp://tracker.1337x.org:80/announceLast Monthsuccess00

Torrent File Content (12 files)

The Vampires Assistant
    The Vampires Assistant - Covers
          The Vampire's Assistant - Cover.jpg -
68.01 KB

          The Vampire's Assistant - Disc.jpg -
31.05 KB

    The Vampires Assistant - DVD
12 KB

12 KB

58 KB

          VIDEO_TS/VTS_01_0.BUP -
72 KB

          VIDEO_TS/VTS_01_0.IFO -
72 KB

          VIDEO_TS/VTS_01_0.VOB -
58 KB

          VIDEO_TS/VTS_01_1.VOB -
1023.97 MB

          VIDEO_TS/VTS_01_2.VOB -
592.41 MB

     The Vampires Assistant.NFO -
5.7 KB

     Torrent downloaded from Demonoid.com.txt -
47 bytes


[ Another free and high quality, ready to burn DVD - I will be adding new torrents on a daily basis - Remember to seed ]
MOVIE TITLE: The Vampires Assissant
MOVIE SUBS: No - (subtitles if/when required)
GENRE: Action | Adventure | Fantasy | Thriller
RUNTIME: 105 Minutes
YEAR: 2009
IMDB LINK: http://www.imdb.com/title/tt0450405/

Teenager Darren Shan is an excellent student and the pride and joy of his perfect middle-class family his best friend is the reckless Steve. When they receive a flyer with an advertisement for a freak show, they sneak to the theater to see the attractions. The ringmaster is a vampire called Larten Crepsley, that has a lethal spider. After the show, Steve tells Darren to go home. However he returns and overhears Steve unsuccessfully trying to convince Larten to transform him into a vampire. Darren steals Larten's spider which bites Steve later and he seeks out Larten asking for an antidote for his friend. Larten proposes a deal to Darren.

Complete name : The Vampires Assistant
Format : MPEG-PS
File size : 1.57 GB
Duration : 105 Minutes
Overall bit rate : 2 274 Kbps

ID : 224 (0xE0)
Format : MPEG Video
Format version : Version 2
Format profile : [email protected]
Format settings, BVOP : Yes
Format settings, Matrix : Default
Duration : 105 Minutes
Bit rate mode : Variable
Bit rate : 2 037 Kbps
Nominal bit rate : 9 608 Kbps
Width : 720 pixels
Height : 576 pixels
Display aspect ratio : 16:9
Frame rate : 25.000 fps
Standard : PAL
Color space : YUV
Chroma subsampling : 4:2:0
Bit depth : 8 bits
Scan type : Progressive
Bits/(Pixel*Frame) : 0.196
Stream size : 917 MiB (90%)

ID : 128 (0x80)
Format : AC-3
Format/Info : Audio Coding 3
Mode extension : CM (complete main)
Duration : 105 Minutes
Bit rate mode : Constant
Bit rate : 192 Kbps
Channel(s) : 2 channels
Channel positions : Front: L R
Sampling rate : 48.0 KHz
Stream size : 86.4 MiB (8%)

Related torrents

Torrent NameAddedSizeSeedLeechHealth
Verified torrent
1 Year+ - in Movies1.99 GB10
1 Year+ - in TV shows1.66 GB00
1 Year+ - in Movies1.45 GB00
1 Year+ - in Movies1.45 GB00
3 months ago - in Movies3.15 GB21

Note :

Feel free to post any comments about this torrent, including links to Subtitle, samples, screenshots, or any other relevant information. Please Dont Download anything from Comments, And Dont Post Links to Streaming Sites like Fmovies, Xmovies8, 123Movies, GoMovies, CMovieshd, Solarmovie, Watchfree, Putlockers, GoStream, m4ufree etc.

Comments (0 Comments)

Please login or create a FREE account to post comments

Latest Searches

| fly angels slaughter | taralynnfoxx | Cyber Security Analytics | film soundtrack complete | Un Amore E Una Vendetta S01e01 | you can dance 720p | james patterson honeymoon | chad kroeger e josey scott hero | origins dlc creed | wonder of animals ac3 |