Quick Browse
Movies
TV shows
Music
Games
Applications
Anime
Other
Facebook
Advertising

Friends
Torrent Download
Movie4u
1337x.to
Torrent Downloads




Verified torrent The Vow 2012 CAM XviD AC3-26K


    Seeders : 2      Leechers : 0
Hash :0FFACD29A5C9FB0A3E7DEB84F1D6278DEC9767CE
Added :1 Year+ by memory100Verified torrent uploader in Movies
Size :1.34 GB
Stream :WATCH ONLINE @ Movie4u


The Vow 2012 CAM XviD AC3-26K
Free and Fast Download with Usenet 300GB+ free







Trackers List

Tracker NameLast CheckStatusSeedersLeechers




Torrent File Content (8 files)


The Vow 2012 CAM XviD AC3-26K
     HDSceneRG.txt -
115 bytes

     The Vow 2012 CAM XviD AC3-26K.avi -
1.31 GB

     The Vow 2012 CAM XviD AC3-26K.nfo -
3.22 KB

     Torrent downloaded from Demonoid.me.txt -
46 bytes

     Torrent downloaded from rarbg.com.txt.txt -
0 bytes

     att-networks.com.txt -
39 bytes

     sample.avi -
34.02 MB

     sceneunderground.org.txt -
77 bytes



Description



http://img109.imageshack.us/img109/9073/thevowz.jpg

[code]
The Vow 2012 CAM XviD AC3-26K

Imdb:
http://www.imdb.com/title/tt1606389/

Plot:
A car accident puts Paige (McAdams) in a coma, and when she wakes up with severe memory loss, her husband Leo (Tatum) works to win her heart again.

Sources:
AUDIO+VIDEO-INFERNO THNXS

Notes:
VERY NICE CAM!!! AND AUDIO IS VERY GOOD AS WELL :)
ADDED A FEW FILTERS TO THE VIDEO TOMAKE IT LOOK NICE

Greetz:
Xtreme Encode|FYA|ILLUMANTI|CM8|RX|VISION|HDSCENE|NIGHTMAREZ|xTriLL|DTRG|CRYS|REMIXHD|BIDA|RX|REFILL|INSPiRAL|SIC|ZOMBIESZ|HOPE|Anonymous|GooN
To all the people who have helped me :P you know who you are

Anything to offer email us @: [email protected]

Video
ID : 0
Format : MPEG-4 Visual
Format profile : Advanced [email protected]
Format settings, BVOP : 2
Format settings, QPel : No
Format settings, GMC : No warppoints
Format settings, Matrix : Default (H.263)
Codec ID : XVID
Codec ID/Hint : XviD
Duration : 1h 39mn
Bit rate : 1 650 Kbps
Width : 720 pixels
Height : 304 pixels
Display aspect ratio : 2.35:1
Frame rate : 29.970 fps
Color space : YUV
Chroma subsampling : 4:2:0
Bit depth : 8 bits
Scan type : Progressive
Compression mode : Lossy
Bits/(Pixel*Frame) : 0.251
Stream size : 1.15 GiB (87%)
Writing library : XviD 64

Audio
ID : 1
Format : AC-3
Format/Info : Audio Coding 3
Mode extension : CM (complete main)
Codec ID : 2000
Duration : 1h 39mn
Source duration : 1h 39mn
Bit rate mode : Constant
Bit rate : 224 Kbps
Channel(s) : 2 channels
Channel positions : Front: L R
Sampling rate : 48.0 KHz
Bit depth : 16 bits
Compression mode : Lossy
Stream size : 159 MiB (12%)
Alignment : Aligned on interleaves
Interleave, duration : 32 ms (0.96 video frame)

[/code]
Screens:
http://i.imgur.com/bE5oe.png

http://i.imgur.com/hd1ZO.png

http://i.imgur.com/4IPVZ.png

http://img215.imageshack.us/img215/4995/vlcsnap2012021814h46m30.png

http://img705.imageshack.us/img705/8361/vlcsnap2012021814h46m13.png

http://img26.imageshack.us/img26/3205/vlcsnap2012021814h46m25.png


http://img851.imageshack.us/img851/5503/26ks.jpg

Thank you smallz for banner!

Related torrents

Torrent NameAddedSizeSeedLeechHealth
Verified torrent
1 Year+ - in Movies1.17 GB10
1 Year+ - in Movies1.01 GB00
1 Year+ - in Movies1.01 GB00
Verified torrent
1 Year+ - in Movies1.44 GB10
Verified torrent
1 Year+ - in Movies1017.33 MB11

Comments (0 Comments)




Please login or create a FREE account to post comments

Latest Searches

| jungle jungle fire | Taylor the | finlayson | The Patsy 1928 | finally famous 1 | Tonighta girlfriend | oceans 11 | Apolonia Daniela Dadivoso | Uma Jolie Ryan Ryans | empires cheat |