Quick Browse
Movies
TV shows
Music
Games
Applications
Anime
Other
Facebook
Advertising

Friends
Torrent Download
Movie4u
1337x.to
Torrent Downloads




Verified torrent The Vow 2012 CAM XviD-INFERNO


    Seeders : 104      Leechers : 30
Hash :2FFADF7EAE24C3BF474619B03B7AA39C3FDFC394
Added :1 Year+ by SAHIBGREWVerified torrent uploader in Movies
Size :748.21 MB
Stream :WATCH ONLINE @ Movie4u


The Vow 2012 CAM XviD-INFERNO
Free and Fast Download with Usenet 300GB+ free







Trackers List

Tracker NameLast CheckStatusSeedersLeechers




Torrent File Content (5 files)


[ www.Torrenting.com ] - The.Vow.2012.CAM.XviD-INFERNO
     READ this before playing the Movie.txt -
473 bytes

     The.Vow.2012.CAM.XviD.avi -
740.38 MB

     The.Vow.Sample.avi -
7.83 MB

     TV.nfo -
2.99 KB

     www.Torrenting.com.txt -
473 bytes



Description



[code]

...................................NFO:....................................

.
http://img692.imageshack.us/img692/9472/fe16rchp.jpg

http://lookpic.com/O/i2/298/l4OrvnSi.png

http://www.imdb.com/title/tt1606389/
[b]

So we got a nice cam of The Vow here
for you.Not to much to say here
did the normal rotate,crop, resize
and adjusted this and that , came out really nice.
Audio is cam but it's very good which we still filtered
to make even better. Had to do a pretty big crop
on this one to remove some subs , still see
alittle of them throughout. So enjoy. :)


The.Vow.2012.CAM.XviD-INFERNO


Format : AVI
Format/Info : Audio Video Interleave
File size : 740 MiB
Duration : 1h 39mn
Overall bit rate : 1 040 Kbps

Video
ID : 0
Format : MPEG-4 Visual
Format profile : Advanced [email protected]
Format settings, BVOP : 2
Format settings, QPel : No
Format settings, GMC : No warppoints
Format settings, Matrix : Default (MPEG)
Muxing mode : Packed bitstream
Codec ID : XVID
Codec ID/Hint : XviD
Duration : 1h 39mn
Bit rate : 900 Kbps
Width : 640 pixels
Height : 272 pixels
Display aspect ratio : 2.35:1
Frame rate : 29.970 fps
Color space : YUV
Chroma subsampling : 4:2:0
Bit depth : 8 bits
Scan type : Progressive
Compression mode : Lossy
Bits/(Pixel*Frame) : 0.173
Stream size : 641 MiB (87%)
Writing library : XviD 64

Audio
ID : 1
Format : MPEG Audio
Format version : Version 1
Format profile : Layer 3
Codec ID : 55
Codec ID/Hint : MP3
Duration : 1h 39mn
Bit rate mode : Constant
Bit rate : 128 Kbps
Channel(s) : 2 channels
Sampling rate : 48.0 KHz
Compression mode : Lossy
Delay relative to video : 22ms
Stream size : 91.1 MiB (12%)
Alignment : Split accross interleaves
Interleave, duration : 33 ms (1.00 video frame)
Interleave, preload duration : 500 ms


http://lookpic.com/O/i2/1964/WcslQxoJ.png

http://lookpic.com/O/i2/1738/iS8fbQnr.png

http://lookpic.com/O/i2/526/JXNPWrNj.png

http://lookpic.com/O/i2/915/Qilyqm5V.png

http://lookpic.com/O/i2/320/NYzbyqPB.png

http://lookpic.com/O/i2/91/W7dciGwx.png




http://www.hotimg.com/direct/ce2Zat5.jpg



[/code][/b]

Related torrents

Torrent NameAddedSizeSeedLeechHealth
1 Year+ - in Movies748.21 MB9370
1 Year+ - in Movies287.47 MB122
1 Year+ - in Movies748.21 MB00
1 Year+ - in Movies1.78 GB00
1 Year+ - in Movies1.01 GB00

Comments (1 comment)




lifeisgood0330
» Downloaded this torrent Downloaded this torrent » Voted Bad Voted Bad for this torrent for this torrent

Added 1 Year+
video good, sound hollow
Please login or create a FREE account to post comments

Latest Searches

| 030411 | One man army work | astrid s a | Bigg Boss 2016 720p WEB HD X264 S10 E31 | erin exploited | VA Vocal Trance Hits 2016 03 2016 MP3 | Taylor K J | he Magnificent Seven 2016 | gs up hes down | hearts spanish |