Quick Browse
Movies
TV shows
Music
Games
Applications
Anime
Other
Facebook
Advertising

Friends
Torrent Download
Movie4u
1337x.to
Torrent Downloads




Verified torrent The Vow 2012 ENG R5 LiNE XViD-TiNO


    Seeders : 4      Leechers : 1
Hash :77A15981A7D5D964546EBC10A9A53EFFCA551D47
Added :1 Year+ by robyrsVerified torrent uploader in Movies
Size :1.02 GB
Stream :WATCH ONLINE @ Movie4u


The Vow 2012 ENG R5 LiNE XViD-TiNO
Free and Fast Download with Usenet 300GB+ free







Trackers List

Tracker NameLast CheckStatusSeedersLeechers




Torrent File Content (7 files)


The Vow 2012 ENG R5 LiNE XViD-TiNO
     The Vow 2012 ENG R5 LiNE XViD-TiNO.avi -
1.02 GB

     darkcore.me.txt -
834 bytes

     HD File info.txt -
727 bytes

     sceneunderground.org.txt -
77 bytes

     Torrent downloaded from AhaShare.com.txt -
59 bytes

     Torrent downloaded from Suprnova.me.txt -
42 bytes

     Torrent downloaded from Rarbg.com.txt -
33 bytes



Description



http://img267.imageshack.us/img267/8135/posterimage.jpg


The Vow 2012 ENG R5 LiNE XViD-TiNO

A car accident puts Paige (McAdams) in a coma, and when she wakes up with severe memory loss, her husband Leo (Tatum) works to win her heart again.

http://www.imdb.com/title/tt1606389/

Source: eztv

Format : AVI
Format/Info : Audio Video Interleave
Duration : 2h 12mn
Overall bit rate : 1 694 Kbps
Writing application : Lavf51.12.1
Writing library : VirtualDub build 33848/release

Video
ID : 0
Format : MPEG-4 Visual
Format profile : Advanced [email protected]
Format settings, BVOP : Yes
Format settings, QPel : No
Format settings, GMC : No warppoints
Format settings, Matrix : Default (H.263)
Muxing mode : Packed bitstream
Codec ID : XVID
Codec ID/Hint : XviD
Duration : 2h 12mn
Bit rate : 1 492 Kbps
Width : 720 pixels
Height : 304 pixels
Display aspect ratio : 2.35:1
Frame rate : 25.000 fps
Color space : YUV
Chroma subsampling : 4:2:0
Bit depth : 8 bits
Scan type : Progressive
Bits/(Pixel*Frame) : 0.273
Stream size : 1.02 GiB (91%)
Writing library : XviD 1.2.1 (UTC 2008-12-04)

Audio
ID : 1
Format : MPEG Audio
Format version : Version 1
Format profile : Layer 3
Mode : Joint stereo
Mode extension : MS Stereo
Codec ID : 55
Codec ID/Hint : MP3
Duration : 2h 12mn
Bit rate mode : Constant
Bit rate : 192 Kbps
Channel(s) : 2 channels
Stream size : 188 MiB (22%)
Alignment : Split accross interleaves
Interleave, duration : 40 ms (1.00 video frame)
Interleave, preload duration : 500 ms
Writing library : LAME3.98.2

Workdone:
Well getting pm's like crazy...some believe it and some dont, but yes we removed the watermark, but only 90% of it. Then we had a choice to blur it or not for the finishing touch. If we didnt litely blur the area you would be able to see the outline of the watermark, so we litely blur it. Last 2 screenshots will show examples. After that was all done, it was a pain to get this file saved in this new program and we had to read up on it. After that was done we insert it into vdub and did our usual, levels, brightness,contrast,and litely ran a smoother.

Audio: untouched

http://img821.imageshack.us/img821/5185/posterimage02.jpg


http://img850.imageshack.us/img850/4654/image0001ab.jpg


http://img38.imageshack.us/img38/8183/image0002ab.jpg


http://img832.imageshack.us/img832/26/image0003ab.jpg


http://img254.imageshack.us/img254/6820/image0004ab.jpg


http://img221.imageshack.us/img221/1744/image0005ab.jpg


ENJOY THIS FINE RELEASE BY: eztv THANKS!!!!

Related torrents

Torrent NameAddedSizeSeedLeechHealth
1 Good
Verified torrent
1 Year+ - in Movies1.06 GB52
2 Comments
1 Bad
Verified torrent
1 Year+ - in Movies1.06 GB12
1 Comments
1 Good
1 Bad
Verified torrent
1 Year+ - in Movies1.13 GB20
1 Good
Verified torrent
1 Year+ - in Movies1.04 GB178
1 Year+ - in Movies741.18 MB11

Comments (2 Comments)




rikalto1959

Added 1 Year+
fake...
Robmalwin
» Voted Good Voted Good for this torrent for this torrent

Added 1 Year+
locker about 20sec!! video7 i just won an ipod man thanks for the adds:)
Please login or create a FREE account to post comments

Latest Searches

| pere noel xxx | amy brooke auction | Pliers flac | what the hell happened to Me | Gorgee | bigg boss2016 | my marry | Vikings S04E12 1080p WEB DL H264 V | hitler stalin roots of evil | helena valentine interracial anal |