Quick Browse
Movies
TV shows
Music
Games
Applications
Anime
Other
Facebook
Advertising

Friends
Torrent Download
Movie4u
1337x.to
Torrent Downloads




Verified torrent The Vow 2012 TS XViD AC3-26K


    Seeders : 1      Leechers : 0
Hash :F863F8B7F379C68E1DD5D44F916F0E4704AB763A
Added :1 Year+ by memory100Verified torrent uploader in Movies
Size :1.17 GB
Stream :WATCH ONLINE @ Movie4u


The Vow 2012 TS XViD AC3-26K
Free and Fast Download with Usenet 300GB+ free







Trackers List

Tracker NameLast CheckStatusSeedersLeechers




Torrent File Content (8 files)


The Vow 2012 TS XViD AC3-26K
     HDSceneRG.txt -
115 bytes

     The Vow 2012 TS XViD AC3-26K.avi -
1.14 GB

     The Vow 2012 TS XViD AC3-26K.nfo -
3.46 KB

     Torrent downloaded from Demonoid.me.txt -
46 bytes

     Torrent downloaded from rarbg.com.txt.txt -
0 bytes

     att-networks.com.txt -
39 bytes

     sample.avi -
29.52 MB

     sceneunderground.org.txt -
77 bytes



Description



http://img72.imageshack.us/img72/4758/thevow.jpg

[code]
The Vow 2012 TS XViD AC3-26K

Imdb:
http://www.imdb.com/title/tt1606389/

Plot:
A car accident puts Paige (McAdams) in a coma, and when she wakes up with severe memory loss, her

husband Leo (Tatum) works to win her heart again.

Sources:
VIDEO - INPIRAL! TNNXS
AUDIO - INPIRAL! TNNXS


Notes:
added few filters to the video to make it look nice!...
thnxs to inspiral for the audio :) line is very good thnxs bro...
nothign special here just a re-encode... of inspirals videoo not got the time anymore... to do cams

properly..
so bottom line take it or take a one way ticket to the moon :D

Greetz:
Xtreme

Encode|FYA|ILLUMANTI|CM8|RX|VISION|HDSCENE|NIGHTMAREZ|xTriLL|DTRG|CRYS|REMIXHD|BIDA|RX|REFILL|INSPiRAL

|SIC|ZOMBIESZ|HOPE|Anonymous|GooN
To all the people who have helped me :P you know who you are

Anything to offer email us @: [email protected]

Video
ID : 0
Format : MPEG-4 Visual
Format profile : Advanced [email protected]
Format settings, BVOP : 2
Format settings, QPel : No
Format settings, GMC : No warppoints
Format settings, Matrix : Default (H.263)
Codec ID : XVID
Codec ID/Hint : XviD
Duration : 1h 39mn
Bit rate : 1 498 Kbps
Width : 720 pixels
Height : 300 pixels
Display aspect ratio : 2.40:1
Frame rate : 29.970 fps
Color space : YUV
Chroma subsampling : 4:2:0
Bit depth : 8 bits
Scan type : Progressive
Compression mode : Lossy
Bits/(Pixel*Frame) : 0.231
Stream size : 1.04 GiB (91%)
Writing library : XviD 64

Audio
ID : 1
Format : AC-3
Format/Info : Audio Coding 3
Mode extension : CM (complete main)
Codec ID : 2000
Duration : 1h 39mn
Source duration : 1h 39mn
Bit rate mode : Constant
Bit rate : 128 Kbps
Channel(s) : 2 channels
Channel positions : Front: L R
Sampling rate : 44.1 KHz
Bit depth : 16 bits
Compression mode : Lossy
Stream size : 91.1 MiB (8%)
Alignment : Aligned on interleaves
Interleave, duration : 35 ms (1.04 video frame)

[/code]
Screens:
http://i.imgur.com/cZcke.png

http://i.imgur.com/NTwsd.png

http://img826.imageshack.us/img826/7653/vlcsnap2012022212h57m27.png

http://img84.imageshack.us/img84/9393/vlcsnap2012022212h57m31.png

http://img100.imageshack.us/img100/5794/vlcsnap2012022212h57m34.png

http://img96.imageshack.us/img96/914/vlcsnap2012022212h57m37.png


Alternative screens:
http://dippic.com/dcluzt6aqufh
http://imgdepot.org/show/20120222/2/86329_vlcsnap_2012_02_22_12h57m34s94.png
http://www.imageporter.com/u513bfz7mw8e/vlcsnap-2012-02-22-12h57m27s24.png
http://www.hotimg.com/image/j4gjWmg

http://img851.imageshack.us/img851/5503/26ks.jpg

Thank you smallz for banner!

Related torrents

Torrent NameAddedSizeSeedLeechHealth
Verified torrent
1 Year+ - in Movies1.34 GB20
1 Year+ - in Movies833.21 MB96
1 Year+ - in Movies855.86 MB00
Verified torrent
1 Year+ - in Movies1.33 GB10
1 Comments
1 Bad
1 Year+ - in Movies1.12 GB381113

Comments (0 Comments)




Please login or create a FREE account to post comments

Latest Searches

| Alice Ferrari | Spy alliance | Iam coming home | x men apocalypse 2016 1080p blueray | threesome xxx videos | brooke wylde 18 years old | logic feat c dot castro | Gracie Glam Lust 1 | Don Omar danza | jennileeonline jenni lee theres something about jenni new july 09 2015 new |