Quick Browse
Movies
TV shows
Music
Games
Applications
Anime
Other
Facebook
Friends
Torrent Download
Free Movies
1337x.to
Torrent Downloads

Verified torrent The Watermen 2011 DVDRip XviD AC3-26K


    Seeders : 0      Leechers : 0
Hash :73249F9203CD122D89F4C6C6590F5BD9F6C721F9
Added :1 Year+ by memory100Verified torrent uploader in Movies
Size :1.18 GB
Stream :Watch Full Movies Online @ Movie4u
Share :


The Watermen 2011 DVDRip XviD AC3-26K
Anonymous and Direct Download 300GB+ free







Warning! Do not Download Torrents Without a VPN!
Your IP Address is .   And Location is
Your Internet Provider and Government can track your torrent Activity!  Hide your IP ADDRESS with a VPN!
We Strongly Recommend Using SpyOFF Torrent VPN to Anonymize your Torrenting. It's FREE For 15 Days!

Note :

Please Update (Trackers Info) Before Downloading Torrents to See Updated Seeders And Leechers for Batter Download Speed.

Trackers List

Tracker NameLast CheckStatusSeedersLeechers




Torrent File Content (7 files)


The Watermen 2011 DVDRip XviD AC3-26K
     HDSceneRG.txt -
115 bytes

     The Watermen 2011 DVDRip XviD AC3-26K.avi -
1.14 GB

     The Watermen 2011 DVDRip XviD AC3-26K.nfo -
3.22 KB

     Torrent downloaded from Demonoid.me.txt -
46 bytes

     att-networks.com.txt -
39 bytes

     sample.avi -
32.27 MB

     sceneunderground.org.txt -
77 bytes



Description



http://img171.imageshack.us/img171/8805/thewaterman.jpg

[code]
The Watermen 2011 DVDRip XviD AC3-26K

Imdb:
http://www.imdb.com/title/tt1430607/

Plot:
A clan of watermen capture a crew of sport fishermen who must then fight for their lives.

Sources:
ZOMBIES thnxs

Notes:
ENJOY. CROPPED AND FIXED BAD AR...

Greetz:
Xtreme

Encode|FYA|ILLUMANTI|CM8|RX|VISION|HDSCENE|NIGHTMAREZ|xTriLL|DTRG|CRYS|REMIXHD|BIDA|RX|REFILL|INSPiRAL|S

IC|ZOMBIESZ|HOPE|Anonymous
To all the people who have helped me :P you know who you are

Anything to offer email us @: [email protected]

Video
ID : 0
Format : MPEG-4 Visual
Format profile : Advanced [email protected]
Format settings, BVOP : 2
Format settings, QPel : No
Format settings, GMC : No warppoints
Format settings, Matrix : Default (H.263)
Codec ID : XVID
Codec ID/Hint : XviD
Duration : 1h 34mn
Bit rate : 1 600 Kbps
Width : 720 pixels
Height : 320 pixels
Display aspect ratio : 2.25:1
Frame rate : 23.976 fps
Color space : YUV
Chroma subsampling : 4:2:0
Bit depth : 8 bits
Scan type : Progressive
Compression mode : Lossy
Bits/(Pixel*Frame) : 0.290
Stream size : 1.05 GiB (92%)
Writing library : XviD 63

Audio
ID : 1
Format : AC-3
Format/Info : Audio Coding 3
Mode extension : CM (complete main)
Codec ID : 2000
Duration : 1h 34mn
Bit rate mode : Constant
Bit rate : 128 Kbps
Channel(s) : 2 channels
Channel positions : Front: L R
Sampling rate : 44.1 KHz
Bit depth : 16 bits
Compression mode : Lossy
Stream size : 86.1 MiB (7%)
Alignment : Aligned on interleaves
Interleave, duration : 35 ms (0.84 video frame)

[/code]
Screens:
http://img214.imageshack.us/img214/8158/vlcsnap2012012318h36m01.png

http://img515.imageshack.us/img515/1425/vlcsnap2012012318h36m05.png

http://img440.imageshack.us/img440/8754/vlcsnap2012012318h36m17.png

http://img16.imageshack.us/img16/2230/vlcsnap2012012318h36m23.png

http://img269.imageshack.us/img269/5157/vlcsnap2012012318h36m28.png

http://img252.imageshack.us/img252/6796/vlcsnap2012012318h36m36.png


http://img851.imageshack.us/img851/5503/26ks.jpg

Thank you smallz for banner!

Related torrents

Torrent NameAddedSizeSeedLeechHealth
1 Year+ - in Movies1.18 GB12
1 Year+ - in Movies1023.05 MB2727
1 Year+ - in Movies1.24 GB731
1 Year+ - in Movies1.24 GB3117
Verified torrent
1 Year+ - in Movies1.24 GB10

Comments (0 Comments)




Please login or create a FREE account to post comments

Latest Searches

| Cherie DeVille Riley Reid Pornoman Go | orgasm evil angel | hancock SACD | house theme music | angel of 6 | hot pop singles may 20 | 2017 kissa sins | Borgore Borgore Ruined Dubstep Part 1 2010 | Katy Rose Niki Sweet | Babes Sore Loser Katy Rose Niki Sweet |