Quick Browse
Movies
TV shows
Music
Games
Applications
Anime
Other
Facebook
Advertising

Friends
Torrent Download
Movie4u
1337x.to
Torrent Downloads




The Wild Stallion (2009)(ENG)(ENG NL SUBS) 2Lions-Team


    Seeders : 26      Leechers : 111
Hash :58E05E9D1EBF014F8F6014BE010D9D64BA6326CD
Added :1 Year+ in Movies
Size :4.28 GB
Stream :WATCH ONLINE @ Movie4u


The Wild Stallion (2009)(ENG)(ENG NL SUBS) 2Lions-Team
Free and Fast Download with Usenet 300GB+ free







Trackers List

Tracker NameLast CheckStatusSeedersLeechers




Torrent File Content (39 files)


The Wild Stallion (2009) 2Lions-Team
    Cover
          The_Wild_Stallion_R1-[cdcovers_cc]-front.jpg -
2.07 MB

          The_Wild_Stallion_Dutch_R2_Custom-[cdcovers_cc]-front.jpg -
445.96 KB

          The_Wild_Stallion_R1-[cdcovers_cc]-cd1.jpg -
381.3 KB

    INFO 2Lions-Team
          logo 2Lions.jpg -
314.99 KB

          The Wild Stallion (2009) 2Lions-Team.txt -
4.38 KB

          Torrents aan geboden door _2lions.ons-forum.nl.txt -
478 bytes

    VIDEO_TS
          VTS_01_1.VOB -
1024 MB

          VTS_01_3.VOB -
1024 MB

          VTS_01_2.VOB -
1024 MB

          VTS_01_4.VOB -
474.1 MB

          VTS_02_1.VOB -
424.99 MB

          VTS_05_1.VOB -
94.18 MB

          VTS_03_1.VOB -
81.71 MB

          VTS_04_1.VOB -
79.86 MB

          VTS_07_1.VOB -
75.24 MB

          VTS_06_1.VOB -
73.88 MB

          VTS_01_0.VOB -
5.61 MB

          VTS_04_0.VOB -
112 KB

          VTS_06_0.VOB -
112 KB

          VTS_07_0.VOB -
112 KB

          VTS_03_0.VOB -
112 KB

          VTS_05_0.VOB -
112 KB

          VTS_02_0.VOB -
112 KB

          VTS_01_0.IFO -
88 KB

          VTS_01_0.BUP -
88 KB

          VTS_02_0.IFO -
24 KB

          VTS_02_0.BUP -
24 KB

          VTS_03_0.IFO -
18 KB

          VTS_04_0.BUP -
18 KB

          VTS_04_0.IFO -
18 KB

          VTS_05_0.BUP -
18 KB

          VTS_06_0.BUP -
18 KB

          VTS_06_0.IFO -
18 KB

          VTS_03_0.BUP -
18 KB

          VTS_05_0.IFO -
18 KB

          VTS_07_0.BUP -
18 KB

          VTS_07_0.IFO -
18 KB

          VIDEO_TS.BUP -
14 KB

          VIDEO_TS.IFO -
14 KB



Description



The Wild Stallion (2009)       

http://img94.imageshack.us/img94/8691/thewildstallion2lions3d.jpg


Verenigde Staten
Drama / Familie
86 minuten

geregisseerd door Craig Clyde
met Miranda Cosgrove, Robert Wagner en Fred Ward

The Wild Stallion gaat over een meisje, Hannah genaamd (Miranda Cosgrove) die besluit om foto's te gaan maken van paarden, voor haar schoolproject. Nadat ze een ranch bezocht heeft en verliefd geworden is op de paarden, krijgt Hannah te maken met illegale handel in mustang


English

A story about two girls, CJ and Hanna. CJ lives on a ranch, Hanna comes to visit and decides to photograph wild horses for a school project. The girls become great friends and learn of a plot that might jeopardize the mustangs.

**********************************************************************************

Post info:
Source....................................: The Wild Stallion 2009 R1 NTSC DVDR-CME
Audio.....................................: Dolby Digital 5.1 Engels & DD2.0
Menu......................................: Ja
Extra's...................................: Ja
Ondertitels...............................: Nederlands, Engels

Vertaling.................................: Pr0t0n & Remco1 (Mooi werk!!!)
Controle en bewerking..............: Guiker

**********************************************************************************

http://img249.imageshack.us/img249/7870/thewild1.jpg


http://img249.imageshack.us/img249/3953/thewild2.jpg


http://img215.imageshack.us/img215/783/thewild3.jpg


http://img249.imageshack.us/img249/8612/thewild4.jpg


Format : MPEG-PS
File size : 1 024 MiB
Duration : 24mn 48s
Overall bit rate : 5 772 Kbps

Video
ID : 224 (0xE0)
Format : MPEG Video
Format version : Version 2
Format profile : [email protected]
Format settings, Matrix : Default
Duration : 24mn 48s
Bit rate mode : Variable
Bit rate : 4 903 Kbps
Nominal bit rate : 9 800 Kbps
Width : 720 pixels
Height : 480 pixels
Display aspect ratio : 16/9
Frame rate : 29.970 fps
Standard : NTSC
Colorimetry : 4:2:0
Scan type : Progressive
Scan order : Top Field First
Bits/(Pixel*Frame) : 0.473
Stream size : 870 MiB (85%)

Audio #1
ID : 128 (0x80)
Format : AC-3
Format/Info : Audio Coding 3
Duration : 24mn 48s
Bit rate mode : Constant
Bit rate : 192 Kbps
Channel(s) : 2 channels
Channel positions : L R
Sampling rate : 48.0 KHz
Stream size : 34.1 MiB (3%)

Audio #2
ID : 129 (0x81)
Format : AC-3
Format/Info : Audio Coding 3
Duration : 24mn 48s
Bit rate mode : Constant
Bit rate : 448 Kbps
Channel(s) : 6 channels
Channel positions : Front: L C R, Surround: L R, LFE
Sampling rate : 48.0 KHz
Stream size : 79.5 MiB (8%)

Text #1
ID : 32 (0x20)
Format : RLE
Format/Info : Run-length encoding
Duration : 24mn 45s

Text #2
ID : 33 (0x21)
Format : RLE
Format/Info : Run-length encoding
Duration : 24mn 45s

Menu
Format : DVD-Video

Spotinformatie
Categorie : Beeld
Formaat : DVD5
Bron : Retail

Ondertitels : Nederlands (instelbaar)
Engels (instelbaar)

Genre : Drama
Familiefilm

Weblink : http://www.moviemeter.nl/film/61093
Weblink : http://www.imdb.com/title/tt0492890

http://www.youtube.com/watch?v=uXjcbZUeUtk

*****************************************

Brought to you by
Pioen
2Lions Team

http://img35.imageshack.us/img35/7115/2lionsteam.jpg


meer zien??
Kom dan eens kijken op ons forum

http://www.2lions.ons-forum.nl

2Lions-Team for all your Dutch MOVIES and more

*****************************************

DON T HIT AND RUN Niet gelijk afhaken als de film binnen is blijf seeden.

Related torrents

Torrent NameAddedSizeSeedLeechHealth
1 Year+ - in Movies4.35 GB8783
1 Year+ - in Movies4.32 GB59294
1 Year+ - in Movies4.12 GB26310
1 Year+ - in Movies3.99 GB33168
1 Year+ - in Movies4.33 GB1136

Comments (0 Comments)




Please login or create a FREE account to post comments

Latest Searches

| lord of the rings audiobook the two towers | santa 2 2016 | raheem devaughn ft | lil wayne tunechi tunechi | n fasi | FakeTaxi Student with lovely big pussy lips gets full check up and creampie fh1007 | 10 new zealand | b5 say | NFL 2016 12 | dj beats 48 |