Quick Browse
Movies
TV shows
Music
Games
Applications
Anime
Other
Facebook
Advertising

Friends
Torrent Download
Movie4u
1337x.to
Torrent Downloads




Verified torrent The World At War [Disc-1 9] [DVD5] [ENG] [AC3] [Hannspree]


    Seeders : 0      Leechers : 0

Trackers List

Tracker NameLast CheckStatusSeedersLeechers
http://exodus.desync.com:6969/announce1 Year+success00




Torrent File Content (26 files)


The World At War [Disc-1]
    The World At War
          VIDEO_TS/VIDEO_TS.BUP -
16 KB

          VIDEO_TS/VIDEO_TS.IFO -
16 KB

          VIDEO_TS/VIDEO_TS.VOB -
6.35 MB

          VIDEO_TS/VTS_01_0.BUP -
44 KB

          VIDEO_TS/VTS_01_0.IFO -
44 KB

          VIDEO_TS/VTS_01_0.VOB -
6.38 MB

          VIDEO_TS/VTS_01_1.VOB -
1023.97 MB

          VIDEO_TS/VTS_01_2.VOB -
365.39 MB

          VIDEO_TS/VTS_02_0.BUP -
44 KB

          VIDEO_TS/VTS_02_0.IFO -
44 KB

          VIDEO_TS/VTS_02_0.VOB -
7.49 MB

          VIDEO_TS/VTS_02_1.VOB -
1023.97 MB

          VIDEO_TS/VTS_02_2.VOB -
288.56 MB

          VIDEO_TS/VTS_03_0.BUP -
44 KB

          VIDEO_TS/VTS_03_0.IFO -
44 KB

          VIDEO_TS/VTS_03_0.VOB -
5.88 MB

          VIDEO_TS/VTS_03_1.VOB -
1023.97 MB

          VIDEO_TS/VTS_03_2.VOB -
494.11 MB

          The World At War [Images]/DVD Cover.jpg -
2.02 MB

          The World At War [Images]/DVD Disc.jpg -
43.48 KB

          The World At War [Images]/screens1.jpg -
198.96 KB

          The World At War [Images]/screens2.jpg -
191.56 KB

          The World At War [Images]/screens3.jpg -
183.67 KB

     The World At War.NFO -
3.65 KB

     Torrent downloaded from 1337x.org.txt -
44 bytes

     Torrent downloaded from H33T.org.txt -
43 bytes



Description



=====================================================================================
[ Another free, high quality, ready to burn DVD I will be adding new torrents on a daily basis - Remember to seed ]
=====================================================================================
MOVIE TITLE: The World At War [Disc 1/9]
LANGUAGE: English
MOVIE SUBS: No
BURN TESTED: Yes
FORMAT: Pal
GENRE: Documentary | War
RUNTIME: Approx 40 Minutes Per Episode
YEAR: 1973
IMDB LINK: http://www.imdb.com/title/tt0071075/
=====================================================================================
MOVIE DESC:

A multi-volumed documentary mini-series, "The World at War" covers the entire history of World War II from the causes of the 1920s to the aftermath of the Cold War in the 1950s. Emphasis is also placed on several inside story episodes, where events are covered which occurred inside Germany and Japan such as resistance to Hitler, life in general under a dictatorial regime, and particular emphasis is focused on the Jewish Holocaust.
=====================================================================================
MOVIE SPECS:

GENERAL:
Complete name : The World At War [Disc-1/9] [DVD5]
Format : MPEG-PS
File size : 4.14 GB
Duration : 40 Minutes
Overall bit rate : 3 746 Kbps

VIDEO:
ID : 224 (0xE0)
Format : MPEG Video
Format version : Version 2
Format profile : [email protected]
Format settings, BVOP : Yes
Format settings, Matrix : Default
Duration : 40 Minutes
Bit rate mode : Variable
Bit rate : 3 479 Kbps
Nominal bit rate : 9 608 Kbps
Width : 720 pixels
Height : 576 pixels
Display aspect ratio : 4:3
Frame rate : 25.000 fps
Standard : PAL
Color space : YUV
Chroma subsampling : 4:2:0
Bit depth : 8 bits
Scan type : Progressive
Bits/(Pixel*Frame) : 0.336
Stream size : 951 MiB (93%)

AUDIO:
ID : 128 (0x80)
Format : AC-3
Format/Info : Audio Coding 3
Mode extension : CM (complete main)
Duration : 40 Minutes
Bit rate mode : Constant
Bit rate : 192 Kbps
Channel(s) : 2 channels
Channel positions : Front: L R
Sampling rate : 48.0 KHz
Stream size : 52.5 MiB (5%)
=====================================================================================
TRACKERS:
http://fr33dom.h33t.com:3310/announce
http://exodus.1337x.org/announce
http://tracker.ilibr.org/announce
http://tpb.tracker.prq.to/announce
http://red.tracker.prq.to/announce
http://tracker.openbittorrent.com/announce
http://gemini.tracker.prq.to/announce
http://11.rarbg.com/announce
http://tracker.publicbt.org/announce
=====================================================================================
[FOOT NOTE]
If you are happy with this download, it would be nice to hear your views or comments that you might have. Enjoy
[Recommended to join] http://www.ft2.co.uk/ [copy and paste to you browser] Come and take a look - FREE
=====================================================================================
Screen Shots Of The World At War [Disc-1/9]
=====================================================================================
http://leetpic.com/images/screenvyv.jpg

=====================================================================================
http://leetpic.com/images/screenlul.jpg

=====================================================================================
http://leetpic.com/images/screens3.jpg

=====================================================================================
Stats For The World At War
http://torrent-stats.info/ab31/a21d35dd.png

=====================================================================================

Related torrents

Torrent NameAddedSizeSeedLeechHealth
Verified torrent
1 Year+ - in Movies3.83 GB179
Verified torrent
1 Year+ - in Movies3.58 GB1048
Verified torrent
1 Year+ - in Movies2.98 GB2018
Verified torrent
1 Year+ - in Movies2.94 GB1434
Verified torrent
1 Year+ - in Movies1.63 GB03

Comments (0 Comments)




Please login or create a FREE account to post comments

Latest Searches

| bron 3 spanish | usb 2 windows 7 driver | hawaii five 0 the jinn who clears the way with khigh dhiegh as wo fat and soon teck oh | cc 2017 portable | ellie goulding official | Metal Gear Solid V Ground Zeroes v1 0 0 5 | Ali Kundilli 2 2016 Turkish Dvdrip Xvid KOM ExtremlymTorrents | arrow season 2 completed | The Fault In Our Stars 2014 BRRip XviD AC3 RoSubbed playXD avi | pure xxx step |